Stardom 2019 10 14 Stardom World Champion Wars 2019 540p / 720p / 1080p [VIP USERs]

Stardom 2019 10 14 Stardom World Champion Wars 2019 540p / 720p / 1080p

dOWNLOAD Stardom 2019 10 14 Stardom World Champion Wars 2019 540p / 720p / 1080p

Stardom 2019 10 14 Stardom World Champion Wars 2019 540p / 720p / 1080p [VIP USERs]
CARD :
Singles Match
Saya Kamitani vs. Tam Nakano

Gauntlet Tag Team Match
Oedo Tai (Andras Miyagi & Jamie Hayter) vs. Oedo Tai
(Hazuki & Natsuko Tora) vs. Queen’s Quest
(Hina & Leo Onozaki) vs. STARS
(Saya Iida & Starlight Kid) vs. Tokyo Cyber Squad
(Death Yama-san & Konami)

Goddesses Of Stardom Tag League 2019 Blue Goddess Block Match
Oedo Tai (Martina & Natsu Sumire) vs. Tokyo Cyber Squad
(Bobbi Tyler & Zoe Lucas)

Goddesses Of Stardom Tag League 2019 Red Goddess Block Match
Queen’s Quest (AZM & Momo Watanabe) vs. STARS
(Mayu Iwatani & Saki Kashima)

Wonder Of Stardom Title Match
Arisa Hoshiki (c) vs. Kagetsu

World Of Stardom Title Match
Bea Priestley (c) vs. Hana Kimura

Stardom 2019 10 14 Stardom World Champion Wars 2019 1080p WEB h264-H33B

DescriptionDATE:  2019.10.14
LOCATION:  Tokyo, Japan
ARENA:  Korakuen Hall
RUNTIME:  2h 23m 47s
VIDEO:  h264 | 3512+ kbps | 1920×1080 px | 30 fps
AUDIO:  AAC | 192 kbps
LANGUAGE:  Japanese (English subtitles)
CONTAINER:  MP4

https://1fichier.com/?2tl0k88mtxi59j6j0r30
https://bayfiles.com/h8t08680nc
https://bitster.cz/file/9465ae
http://dl.free.fr/qSemubrRO
https://earn4files.com/8vkphvej7km0
https://fileup.cc/3mld71r234i1
https://multiup.org/download/5ab8bd6ec31de10f9a270ee6630e33cf
https://rapidgator.net/file/ee1645f693acc54019d647b492af9ba7
https://uptobox.com/ey9e7hhp7no3
https://userscloud.com/6mhbhwlpe6kg

1fichier

https://1fichier.com/?q7mvgn4opyi0jyqj9hga
https://1fichier.com/?l6pb3wr3uurn6zorrnd8
https://1fichier.com/?jgcvqgmqkaypu4q59ncg
https://1fichier.com/?6fzk1iz13jnrvdtxyt93

bayfiles
https://bayfiles.com/P0sd8c88n9
https://bayfiles.com/Wes98786ne
https://bayfiles.com/ydtc8989n0
https://bayfiles.com/x1te8989n2

bdupload
https://dl.bdupload.in/6lb9rgr6f5wg
https://dl.bdupload.in/coejeen5du7q
https://dl.bdupload.in/jrfovs571j1z
https://dl.bdupload.in/379rz2mt5gqk

bitster
https://bitster.cz/file/bae16a
https://bitster.cz/file/cdd925
https://bitster.cz/file/fe8942
https://bitster.cz/file/d7678f

dl.free.fr
http://dl.free.fr/mdoY7MEN5
http://dl.free.fr/u56SIAIWt
http://dl.free.fr/iVGdSgYBV
http://dl.free.fr/hFx1NWPJQ

earn4files
https://earn4files.com/2hru06to0a6r
https://earn4files.com/o0zdxlxrsy47
https://earn4files.com/thzkh78hw9a1
https://earn4files.com/j0m744yawwd2

fileup
https://fileup.cc/cybi7qmfx1g7
https://fileup.cc/7g364o7qfx4b
https://fileup.cc/hi5ulw4nrvuz
https://fileup.cc/nox5jr9ags15


rapidgator
https://rapidgator.net/file/ba6dbee8f9aff7bff9682008c0d8ff7f
https://rapidgator.net/file/bc2b5326151d9426fe1328e10c644103
https://rapidgator.net/file/b059c3139fa60f075af27105227e8c0f
https://rapidgator.net/file/7b04b1924f9e7c2e0a276c7b90f6c422

uptobox
https://uptobox.com/a6aghelcoqy2
https://uptobox.com/5tt312uj9ee5
https://uptobox.com/q0z7ayjhq5av
https://uptobox.com/k3y19vn8izym

uptomega
https://uptomega.com/sxl3uwaqnsx9
https://uptomega.com/oqphjaab2xi7
https://uptomega.com/xxqq0mr2hywv
https://uptomega.com/ja1so8lnlzuh

userscloud
https://userscloud.com/90r65j3mstvk
https://userscloud.com/frduw2modkfo
https://userscloud.com/q4f7rv9u13rm
https://userscloud.com/crs4jkyzb4fh

multiup

https://multiup.org/download/79223387e3b50f2b522953ea2c4a605f
https://multiup.org/download/3806445eb45cf07d205505e294e659e9
https://multiup.org/download/9da288d4f29fcd47059f93e12875c631
https://multiup.org/download/fc0009fa6522019084d358cb4a8b68e4

Stardom 2019 10 14 Stardom World Champion Wars 2019 720p WEBRIP x264-WH

General
Format                           : MPEG-4
Format profile                   : Base Media
Codec ID                         : isom
File size                        : 2.15 GiB
Duration                         : 2h 24mn
Overall bit rate                 : 2 131 Kbps
Encoded date                     : UTC 2019-09-26 20:46:25
Tagged date                      : UTC 2019-09-26 20:46:25
Writing application              : Lavf56.15.102

Video
ID                               : 1
Format                           : AVC
Format/Info                      : Advanced Video Codec
Format profile                   : [email protected]
Format settings, CABAC           : No
Format settings, ReFrames        : 2 frames
Codec ID                         : avc1
Codec ID/Info                    : Advanced Video Coding
Duration                         : 2h 24mn
Bit rate mode                    : Variable
Bit rate                         : 2 000 Kbps
Width                            : 1 280 pixels
Height                           : 720 pixels
Display aspect ratio             : 16:9
Frame rate mode                  : Constant
Frame rate                       : 30.000 fps
Color space                      : YUV
Chroma subsampling               : 4:2:0
Bit depth                        : 8 bits
Scan type                        : Progressive
Bits/(Pixel*Frame)               : 0.072
Stream size                      : 2.02 GiB (94%)
Writing library                  : x264 core 142
Language                         : English
Encoded date                     : UTC 2019-09-26 20:46:25
Tagged date                      : UTC 2019-09-26 20:46:25

Audio
ID                               : 2
Format                           : AAC
Format/Info                      : Advanced Audio Codec
Format profile                   : LC
Codec ID                         : 40
Duration                         : 2h 24mn
Bit rate mode                    : Constant
Bit rate                         : 128 Kbps
Channel(s)                       : 2 channels
Channel positions                : Front: L R
Sampling rate                    : 44.1 KHz
Compression mode                 : Lossy
Stream size                      : 132 MiB (6%)
Language                         : JAPANESE
Encoded date                     : UTC 2019-09-26 20:46:25
Tagged date                      : UTC 2019-09-26 20:46:25

https://1fichier.com/?zwd7u02lzlvu5gm49c9z
https://bayfiles.com/tewb8c8an7
https://bitster.cz/file/c3d83f
http://dl.free.fr/gTaXyuTXj
https://earn4files.com/re29iow17a3f
https://fileup.cc/ncmpeelnfa8t
https://multiup.org/download/539fc2b5034da99f40b526ddca4def4f
https://rapidgator.net/file/df32fc65af2e0449c73a89676669708c
https://uptobox.com/goejaenzct0i
https://userscloud.com/weevmeq2vva1

Stardom 2019 10 14 Stardom World Champion Wars 2019 540p WEBRIP x264-WH

General
Format                           : MPEG-4
Format profile                   : Base Media
Codec ID                         : isom
File size                        : 1.04 GiB
Duration                         : 2h 24mn
Overall bit rate                 : 1 033 Kbps
Encoded date                     : UTC 2019-09-26 20:46:25
Tagged date                      : UTC 2019-09-26 20:46:25
Writing application              : Lavf56.15.102

Video
ID                               : 1
Format                           : AVC
Format/Info                      : Advanced Video Codec
Format profile                   : [email protected]
Format settings, CABAC           : No
Format settings, ReFrames        : 2 frames
Codec ID                         : avc1
Codec ID/Info                    : Advanced Video Coding
Duration                         : 2h 24mn
Bit rate mode                    : Variable
Bit rate                         : 900 Kbps
Width                            : 960 pixels
Height                           : 540 pixels
Display aspect ratio             : 16:9
Frame rate mode                  : Constant
Frame rate                       : 30.000 fps
Color space                      : YUV
Chroma subsampling               : 4:2:0
Bit depth                        : 8 bits
Scan type                        : Progressive
Bits/(Pixel*Frame)               : 0.058
Stream size                      : 928 MiB (87%)
Writing library                  : x264 core 142
Language                          : JAPANESE
Encoded date                     : UTC 2019-09-26 20:46:25
Tagged date                      : UTC 2019-09-26 20:46:25

Audio
ID                               : 2
Format                           : AAC
Format/Info                      : Advanced Audio Codec
Format profile                   : LC
Codec ID                         : 40
Duration                         : 2h 24mn
Bit rate mode                    : Constant
Bit rate                         : 128 Kbps
Channel(s)                       : 2 channels
Channel positions                : Front: L R
Sampling rate                    : 44.1 KHz
Compression mode                 : Lossy
Stream size                      : 132 MiB (12%)
Language                         : English
Encoded date                     : UTC 2019-09-26 20:46:25
Tagged date                      : UTC 2019-09-26 20:46:25

https://1fichier.com/?vcvg38q7n4hjhn0xa8bm
https://bayfiles.com/Icz78f81n9
https://dl.bdupload.in/kmntp200goct
https://bitster.cz/file/6bb2da
http://dl.free.fr/gFTySEUua
https://earn4files.com/zdqo57dk2dp6
https://fileup.cc/nq23tvr855i7
https://multiup.org/download/510fae9aaf1fcfdb5b76eab1134623f8
https://rapidgator.net/file/7407161dbeeeaddb350f0065d431fc20
https://uptobox.com/hbzw98nhb3yb
https://uptomega.com/a1td7z1ya0x8
https://userscloud.com/1jxjednzv4os

Leave a Reply

Your email address will not be published. Required fields are marked *