Star Pro New Stars Are Born 2019 720p / 27th JAN 2019

Star Pro 2019 01 27 New Stars Are Born 720p WEB h264-NCMP

Star Pro 2019 01 27 New Stars Are Born 720p WEB h264-NCMP

STAR New Stars Are Born 
STAR Pro Wrestling 
Sunday, January 27th, 2019 

From Warminster, Pennsylvania – Featuring: 

    Anthony Greene vs Logan Easton LaRoux 
    Habib From The Car Wash vs Billy Avery 
    Frantik and Jacob Tarasso vs Alex Anthony and Razerhawk 
    Hardcore Match: Jeff Cannonball vs Havoc 
    STAR Pro Junior Heavyweight Title Match: Joey Clyde vs Jixx vs Manny Martinez 
    Anthony Bennett vs Wheeler YUTA 
    STAR Pro Women’s Title Match: Terra Calaway vs Faye Jackson 
    Jimmy Rave vs Ophidian 

General
Complete name : Star.Pro.2019.01.27.New.Stars.Are.Born.720p.WEB.h264-NCMP.mp4
Format : MPEG-4
Format profile : Base Media
Codec ID : isom (isom/iso2/avc1/mp41)
File size : 1.48 GiB
Duration : 2 h 5 min
Overall bit rate : 1 683 kb/s
Writing application : Lavf55.12.100

Video
ID : 2
Format : AVC
Format/Info : Advanced Video Codec
Format profile : [email protected]
Format settings : CABAC / 4 Ref Frames
Format settings, CABAC : Yes
Format settings, Reference : 4 frames
Codec ID : avc1
Codec ID/Info : Advanced Video Coding
Duration : 2 h 5 min
Bit rate : 1 542 kb/s
Width : 1 280 pixels
Height : 720 pixels
Display aspect ratio : 16:9
Original display aspect rat : 16:9
Frame rate mode : Variable
Frame rate : 29.970 (29970/1000) FPS
Minimum frame rate : 29.940 FPS
Maximum frame rate : 29.970 FPS
Color space : YUV
Chroma subsampling : 4:2:0
Bit depth : 8 bits
Scan type : Progressive
Bits/(Pixel*Frame) : 0.056
Stream size : 1.35 GiB (92%)
Codec configuration box : avcC

Audio
ID : 1
Format : AAC LC
Format/Info : Advanced Audio Codec Low Complexity
Codec ID : mp4a-40-2
Duration : 2 h 5 min
Bit rate mode : Constant
Bit rate : 129 kb/s
Channel(s) : 2 channels
Channel layout : L R
Sampling rate : 44.1 kHz
Frame rate : 43.066 FPS (1024 SPF)
Compression mode : Lossy
Stream size : 116 MiB (8%)
Default : Yes
Alternate group : 1

https://1fichier.com/?hf7a535m9ba3roykbwvx
https://anonfile.com/V726e9t0n4
https://bayfiles.com/H941eet2nd
https://bitster.cz/file/064cfb
https://ddl.to/u22ysaxxvo9m
http://dl.free.fr/noAGhB6CS
https://file.bz/N336e6tenf
http://www.filefactory.com/file/5l5xoa0xnb8x
https://filerio.in/67g7t8hrday4
https://filescdn.net/7e4djnpy1v2j
https://multiup.org/download/5bf92c2af142f550939b41277ffc814b

http://www.netshare.cz/ed3a752f7a7e7737
http://nitroflare.com/view/CF1BF2211B53F7F
https://openload.co/f/4bQ39yEec50
https://rg.to/file/3fb6826838731833cce6efbf75f090e7
https://turbobit.net/ow89pk0l6lre.html
https://uploadgig.com/file/download/76Db28f0f4bD8ac6

Leave a Reply

Your email address will not be published. Required fields are marked *