Star Pro Jersey Brawl 2019 720p / 16th March 2019

Star Pro 2019 03 16 Jersey Brawl 720p WEB h264-NCMP
Star Pro 2019 03 16 Jersey Brawl 720p WEB h264-NCMP


STAR Pro Jersey Brawl 
STAR Pro Wrestling 
Saturday, March 16th, 2019 

From Morganville, New Jersey – Featuring: 

    Jixx vs Marcus Skyler 
    Jinx vs Terra Calaway 
    BLK Jeez vs Ophidian 
    STAR Pro Tag Team Title, Texas Tornado, Elimination Match: Chris Powers and Jacob Tarasso vs Alex Anthony and Anthony Bennett vs The Batiri (Kodama and Obariyon) 
    STAR Pro Junior Heavyweight Title Match: Joe Clyde vs Manny Martinez 
    No DQ Match: Jeff Cannonball vs Crazy Ivan 
    STAR Pro Heavyweight Title, Battle Royal 

General
Complete name : Star.Pro.2019.03.16.Jersey.Brawl.720p.WEB.h264-NCMP.mp4
Format : MPEG-4
Format profile : Base Media
Codec ID : isom (isom/iso2/avc1/mp41)
File size : 1.12 GiB
Duration : 1 h 35 min
Overall bit rate : 1 677 kb/s
Writing application : Lavf55.12.100

Video
ID : 2
Format : AVC
Format/Info : Advanced Video Codec
Format profile : [email protected]
Format settings : CABAC / 4 Ref Frames
Format settings, CABAC : Yes
Format settings, Reference : 4 frames
Codec ID : avc1
Codec ID/Info : Advanced Video Coding
Duration : 1 h 35 min
Bit rate : 1 537 kb/s
Width : 1 280 pixels
Height : 720 pixels
Display aspect ratio : 16:9
Original display aspect rat : 16:9
Frame rate mode : Variable
Frame rate : 29.970 (29970/1000) FPS
Minimum frame rate : 29.940 FPS
Maximum frame rate : 29.970 FPS
Color space : YUV
Chroma subsampling : 4:2:0
Bit depth : 8 bits
Scan type : Progressive
Bits/(Pixel*Frame) : 0.056
Stream size : 1.03 GiB (92%)
Codec configuration box : avcC

Audio
ID : 1
Format : AAC LC
Format/Info : Advanced Audio Codec Low Complexity
Codec ID : mp4a-40-2
Duration : 1 h 35 min
Bit rate mode : Constant
Bit rate : 129 kb/s
Channel(s) : 2 channels
Channel layout : L R
Sampling rate : 44.1 kHz
Frame rate : 43.066 FPS (1024 SPF)
Compression mode : Lossy
Stream size : 88.4 MiB (8%)
Default : Yes
Alternate group : 1

https://1fichier.com/?rp4uzs5s029t3xwr0dt1
https://anonfile.com/8f4ae6tdnb
https://bayfiles.com/Ce53e3t0ne
https://bitster.cz/file/c35f93
https://ddl.to/jh1klbmc1z0j
http://dl.free.fr/obcuJ3Ib0
https://file.bz/u853e2t0n8
http://www.filefactory.com/file/6d8h9ahsgmnh
https://filerio.in/e4979h38us58
https://filescdn.net/mei898j5ong2
https://multiup.org/download/a0c46948efe60d16f413289e0b204c29
http://www.netshare.cz/e8508220ac381f7d
http://nitroflare.com/view/2E13A729AFBAA90
https://openload.co/f/pO4Z1K_a7lQ
https://rg.to/file/159d0ffa3dff3766412de02c55657166
https://turbobit.net/o0zzgi9y7ne3.html
https://uploadgig.com/file/download/1c87211afb3ba289

Leave a Reply

Your email address will not be published. Required fields are marked *