SFT Standout Fighting Tournament 12 720p WEB DL x264-RM

SFT Standout Fighting Tournament 12 720p WEB DL x264-RM

SFT Standout Fighting Tournament 12 720p WEB DL x264-RM

General
Complete name : SFT.Standout.Fighting.Tournament.12.720p.WEB.DL.x264-RM.mp4
Format : MPEG-4
Format profile : Base Media / Version 2
Codec ID : mp42 (isom/mp42)
File size : 4.73 GiB
Duration : 5 h 31 min
Overall bit rate mode : Variable
Overall bit rate : 2 044 kb/s
Encoded date : UTC 2019-05-26 12:55:35
Tagged date : UTC 2019-05-26 12:55:35
gsst : 0
gstd : 19870847

Video
ID : 1
Format : AVC
Format/Info : Advanced Video Codec
Format profile : [email protected]
Format settings : CABAC / 3 Ref Frames
Format settings, CABAC : Yes
Format settings, Reference : 3 frames
Codec ID : avc1
Codec ID/Info : Advanced Video Coding
Duration : 5 h 31 min
Bit rate : 1 912 kb/s
Width : 1 280 pixels
Height : 720 pixels
Display aspect ratio : 16:9
Frame rate mode : Constant
Frame rate : 29.970 (30000/1001) FPS
Color space : YUV
Chroma subsampling : 4:2:0
Bit depth : 8 bits
Scan type : Progressive
Bits/(Pixel*Frame) : 0.069
Stream size : 4.42 GiB (94%)
Title : ISO Media file produced by Google Inc. Created on: 05/26/2019.
Encoded date : UTC 2019-05-26 12:55:35
Tagged date : UTC 2019-05-26 12:55:35
Color range : Limited
Color primaries : BT.709
Transfer characteristics : BT.709
Matrix coefficients : BT.709
Codec configuration box : avcC

Audio
ID : 2
Format : AAC LC
Format/Info : Advanced Audio Codec Low Complexity
Codec ID : mp4a-40-2
Duration : 5 h 31 min
Bit rate mode : Variable
Bit rate : 128 kb/s
Channel(s) : 2 channels
Channel layout : L R
Sampling rate : 44.1 kHz
Frame rate : 43.066 FPS (1024 SPF)
Compression mode : Lossy
Stream size : 303 MiB (6%)
Title : ISO Media file produced by Google Inc. Created on: 05/26/2019.
Encoded date : UTC 2019-05-26 12:55:35
Tagged date : UTC 2019-05-26 12:55:35

https://1fichier.com/?qgjxr74a4ck5sr33aj1w
https://bayfiles.com/Z1Cae6t1n5
https://bitster.cz/file/f9d497
http://dl.free.fr/iWiMXSLly
https://file.bz/Y2Bbe6t7n2
https://filerio.in/b7uonn0jkyj4
https://filescdn.net/n9eifi3g698r
https://multiup.org/download/81574594298c10d06c0fda9e11cc2e5d
http://nitroflare.com/view/A7A0E89C64CECDA
https://openload.co/f/n0C2_RBLsMg
https://rg.to/file/22ba57e4a98baad1a36aee64921bd12d
https://turbobit.net/ywlsubthtotc.html
https://uploadgig.com/file/download/a29Efd60E1eD6612

Leave a Reply

Your email address will not be published.