Sabotage Wrestling Come And Take It 2019 1080p

Sabotage Wrestling 2019 05 25 Come And Take It 1080p WEB h264-NCMP

Come And Take It 2019, Sabotage Wrestling Come And Take It 2019 720p

Sabotage Wrestling 2019 05 25 Come And Take It 1080p WEB h264-NCMP

Sabotage Wrestling: Come and Take It IPPV Replay 
Video Duration: 03:21:06 

Four Way Match 
Ali Bama vs. Chris Cruz vs. Davienne vs. Tomahawk 

Singles Match 
Leyla Hirsch vs. Raychell Rose 

Singles Match 
Alex Gracia vs. Erica 

Singles Match 
Jenna Lynn vs. Kiki Vibez 

Inspire Pro Undefinable Title Match 
Kody Lane (c) vs. Veda Scott 

Singles Match 
Delilah Doom vs. Rok-C 

Singles Match 
Kris Statlander vs. Thunder Rosa 

Sabotage War Of The Genders Title Match 
Shotzi Blackheart (c) vs. Ricky Starks 

Singles Match 
Effy vs. GPA 

Sabotage Tag Team Title Match 
Fun And Sexy (Baby D & Phoebe) (c) vs. Team Sea Stars (Ashley Vox & Delmi Exo) 

General
Complete name : Sabotage.Wrestling.2019.05.25.Come.And.Take.It.1080p.WEB.h264-NCMP.mp4
Format : MPEG-4
Format profile : Base Media
Codec ID : isom (isom/iso2/avc1/mp41)
File size : 5.37 GiB
Duration : 3 h 21 min
Overall bit rate mode : Variable
Overall bit rate : 3 821 kb/s
Writing application : Lavf56.19.101

Video
ID : 1
Format : AVC
Format/Info : Advanced Video Codec
Format profile : [email protected]
Format settings : CABAC / 3 Ref Frames
Format settings, CABAC : Yes
Format settings, Reference : 3 frames
Codec ID : avc1
Codec ID/Info : Advanced Video Coding
Duration : 3 h 21 min
Bit rate : 3 618 kb/s
Width : 1 920 pixels
Height : 1 080 pixels
Display aspect ratio : 16:9
Frame rate mode : Variable
Frame rate : 29.970 FPS
Minimum frame rate : 29.940 FPS
Maximum frame rate : 90 000.000 FPS
Color space : YUV
Chroma subsampling : 4:2:0
Bit depth : 8 bits
Scan type : Progressive
Bits/(Pixel*Frame) : 0.058
Stream size : 5.08 GiB (95%)
Codec configuration box : avcC

Audio
ID : 2
Format : AAC LC
Format/Info : Advanced Audio Codec Low Complexity
Codec ID : mp4a-40-2
Duration : 3 h 21 min
Bit rate mode : Variable
Bit rate : 192 kb/s
Maximum bit rate : 195 kb/s
Channel(s) : 2 channels
Channel layout : L R
Sampling rate : 48.0 kHz
Frame rate : 46.875 FPS (1024 SPF)
Compression mode : Lossy
Stream size : 276 MiB (5%)
Default : Yes
Alternate group : 1

https://1fichier.com/?wid75tw48kess1wto1iw
https://anonfile.com/L5val5tcn1
https://bayfiles.com/lbz9l3t8n3
https://bitster.cz/file/e4b93b
http://dl.free.fr/kIRE5EpRO
https://file.bz/k2z5l7t8n9
https://filerio.in/kou98jtd0i8t
https://filescdn.net/egf83n1fqoae
https://multiup.org/download/f0ac7a597bcbd7f25ed79f1d18554d0d
http://nitroflare.com/view/55ED1D866245223
https://openload.co/f/lN2anh_V0h0
https://rg.to/file/fe371cdcd86237d76222cf552b96f703
https://turbobit.net/d7rhvx8y4d2u.html
https://uploadgig.com/file/download/Cc0D52b9FD1e3899

Leave a Reply

Your email address will not be published. Required fields are marked *