ROH State Of The Art 2019 06 01 WEB x264-DX

ROH State Of The Art 2019 06 01 WEB x264-DX

ROH State Of The Art 2019 06 01 WEB x264-DX

[EVENT]………..: ROH State Of The Art 6/1/2019 WEB DL x264 DX-TV mp4
[RELEASED]……..: 2019.06.1
[SOURCE]……….: WEB DL
[CONTAINER]…….: mp4
[SIZE]…………: 2.65 GB
[Capper Group]….: DX-TV
[Duration]……..: 3 h 
[RESOLUTION]……: 704 x 400 {16:9}@ 29.970 FPS
[VIDEO]………..: x264 @ 1500 kbps
[AUDIO]………..: AAC @ 129 kbps

Note :

missing last 2 minutes

General
Complete name : ROH State Of The Art 6-1-2019 WEB DL x264 DX-TV.mp4
Format : MPEG-4
Format profile : Base Media / Version 2
Codec ID : mp42 (mp42)
File size : 2.66 GiB
Duration : 2 h 58 min
Overall bit rate : 2 134 kb/s
Codirector : codirector
Production studio : studio
ContentType : Unknown Type
Encoded date : UTC 2019-06-02 05:26:27
Tagged date : UTC 2019-06-02 05:26:27

Video
ID : 1
Format : AVC
Format/Info : Advanced Video Codec
Format profile : [email protected]
Format settings : CABAC / 2 Ref Frames
Format settings, CABAC : Yes
Format settings, Reference : 2 frames
Muxing mode : Container [email protected]
Codec ID : avc1
Codec ID/Info : Advanced Video Coding
Duration : 2 h 58 min
Bit rate : 2 000 kb/s
Width : 960 pixels
Height : 540 pixels
Display aspect ratio : 16:9
Frame rate mode : Constant
Frame rate : 30.000 FPS
Color space : YUV
Chroma subsampling : 4:2:0
Bit depth : 8 bits
Scan type : Progressive
Bits/(Pixel*Frame) : 0.129
Stream size : 2.49 GiB (94%)
Language : English
Codec configuration box : avcC

Audio
ID : 2
Format : AAC LC
Format/Info : Advanced Audio Codec Low Complexity
Codec ID : mp4a-40-2
Duration : 2 h 58 min
Bit rate mode : Constant
Bit rate : 127 kb/s
Channel(s) : 2 channels
Channel layout : L R
Sampling rate : 48.0 kHz
Frame rate : 46.875 FPS (1024 SPF)
Compression mode : Lossy
Stream size : 162 MiB (6%)
Title : Stereo
Language : English
Default : Yes
Alternate group : 1

This image has an empty alt attribute; its file name is Z5PBPnA.png

filetransfer [Recommended by me]

https://filetransfer.io/data-package/S5LBiOT2

https://1fichier.com/?jmsw57bjwggwqxxhte7r
https://bitster.cz/file/4d0d8e
http://dl.free.fr/fPvbXTKDP
https://file.bz/78sfI9tfn3
https://filerio.in/441b1mrsp7ek
https://filescdn.net/3la32gss4lue
https://multiup.org/download/4b768be9e2091438c6d56a520f34474a
http://nitroflare.com/view/00FCACD75CB19DF
https://openload.co/f/JW3_MkRWvoM
https://rg.to/file/18b4b468da5c470c3f25d1cf4056286a
https://turbobit.net/yurxf7f2jhai.html

Leave a Reply

Your email address will not be published.