ROH Death Before Dishonor 2019 09 28 1080p

ROH Death Before Dishonor 2019 09 28 1080p WEB x264-WH

dOWNLOAD ROH Death Before Dishonor 2019 09 28 1080p

ROH Death Before Dishonor 2019 09 28 1080p

General
Complete name : ROH.Death.Before.Dishonor.2019.09.28.1080p.WEB.x264-WH.mp4
Format : MPEG-4
Format profile : Base Media
Codec ID : isom (isom/iso2/avc1/mp41)
File size : 5.49 GiB
Duration : 2 h 35 min
Overall bit rate mode : Variable
Overall bit rate : 5 071 kb/s
Writing application : Lavf58.25.100

Video
ID : 1
Format : AVC
Format/Info : Advanced Video Codec
Format profile : [email protected]
Format settings : CABAC / 2 Ref Frames
Format settings, CABAC : Yes
Format settings, Reference : 2 frames
Format settings, GOP : M=3, N=60
Codec ID : avc1
Codec ID/Info : Advanced Video Coding
Duration : 2 h 35 min
Bit rate mode : Constant
Bit rate : 5 000 kb/s
Width : 1 920 pixels
Height : 1 080 pixels
Display aspect ratio : 16:9
Frame rate mode : Constant
Frame rate : 30.000 FPS
Color space : YUV
Chroma subsampling : 4:2:0
Bit depth : 8 bits
Scan type : Progressive
Bits/(Pixel*Frame) : 0.080
Stream size : 5.41 GiB (99%)
Codec configuration box : avcC

Audio
ID : 2
Format : AAC LC
Format/Info : Advanced Audio Codec Low Complexity
Codec ID : mp4a-40-2
Duration : 2 h 35 min
Bit rate mode : Variable
Bit rate : 61.4 kb/s
Maximum bit rate : 63.8 kb/s
Channel(s) : 2 channels
Channel layout : L R
Sampling rate : 48.0 kHz
Frame rate : 46.875 FPS (1024 SPF)
Compression mode : Lossy
Stream size : 68.1 MiB (1%)
Default : Yes
Alternate group : 1

download

rapidgator

https://rapidgator.net/file/3cdb77cfca2088f40773fc23e99e4761

uptobox

https://uptobox.com/pmth4cfjmp7e

earn4files

https://earn4files.com/t2v8lqqvjquk

fileup
https://fileup.cc/dzdiv51s3kga

4downfiles

https://4downfiles.org/zw51um3h2h45

uploadgig
https://uploadgig.com/file/download/7ea0c9115dc91B6c

nitroflare
http://nitroflare.com/view/94488820D2142FF

multiup
https://multiup.org/download/77717a862aab527ea9fc86bd1cd9840e

1fichier

https://1fichier.com/?w7sxrqjqza5ui0s2nkr5
https://1fichier.com/?ywu12a2jq47bt26gma0x
https://1fichier.com/?ixodac4e47vfcaycvlvl
https://1fichier.com/?ogpr0rtw1k0d9olx3bn6
https://1fichier.com/?xacv0sjf4w649w3bt6r9
https://1fichier.com/?b0z906m4razztoqv37fq

4downfiles
https://4downfiles.org/cchf9yem7blj
https://4downfiles.org/7ypywigltxsh
https://4downfiles.org/z8x7ivec5ldt
https://4downfiles.org/p1ooodjq4fs6
https://4downfiles.org/t6p50x37trhs
https://4downfiles.org/jq1menpahz6g

anonfile
https://anonfile.com/abd9n970n2
https://anonfile.com/u6ebnd7ane
https://anonfile.com/31dcn170n3
https://anonfile.com/78d3n270ne
https://anonfile.com/65d9n772n2
https://anonfile.com/I3ddn07anc

ddl.to
https://ddl.to/qqzxk2j1x7by
https://ddl.to/mc2t0wbs2rnp
https://ddl.to/isc38afhottq
https://ddl.to/8q0elompw7bu
https://ddl.to/6hw85hrk7vfy
https://ddl.to/u2s2sc18cwvx

dl.free.fr
http://dl.free.fr/iDSDuurrq
http://dl.free.fr/oPrpl0Qz5
http://dl.free.fr/kEoQbKT18
http://dl.free.fr/jCRaI45U2
http://dl.free.fr/qzRWXMyTJ
http://dl.free.fr/slefrtg9R

earn4files
https://earn4files.com/q1fd0tl6uf7x
https://earn4files.com/0gknx5oalxzc
https://earn4files.com/6tdrw9h0cod9
https://earn4files.com/p0fx0vlbh5qq
https://earn4files.com/a82xm0k7s3mo
https://earn4files.com/espjkj3twlaw

rockfile
http://rockfile.co/8cuxv159z7v3.html
http://rockfile.co/y39qd9bwu1nl.html
http://rockfile.co/6odwjg5cb4za.html
http://rockfile.co/y5udb5n5vgpg.html
http://rockfile.co/jzunsny0v4lm.html
http://rockfile.co/1m77h35y16k0.html

uptomega
https://uptomega.com/v5dilahfpmpz
https://uptomega.com/o3u1ahurd75l
https://uptomega.com/lxj0m7wxk8zo
https://uptomega.com/p83jpfydzawz
https://uptomega.com/qdqe3rwd39av
https://uptomega.com/jsirhius51xw

One Comment on “ROH Death Before Dishonor 2019 09 28 1080p”

  1. Thanks for posting, but it seems but versions posted are choppy frame rate wise and run out of sync.

    I have tried using MPC-HC and VLC and Media Player and the result is the same everytime.

    Any suggestions? Thanks!

Leave a Reply

Your email address will not be published. Required fields are marked *