ROH 2019 11 02 The Experience 540p / 720p -WH

ROH 2019 11 02 The Experience 540p / 720p -WH

dOWNLOAD ROH 2019 11 02 The Experience 540p / 720p -WH

ROH 2019 11 02 The Experience 540p / 720p -WH

ROH 2019 11 02 The Experience 540p WEBRIP x264-WH

General
Complete name                    : 
ROH.2019.11.02.The.Experience.540p.WEBRIP.x264-WH.mp4
Format                           : MPEG-4
Format profile                   : Base Media
Codec ID                         : isom
File size                        : 1.43 GiB
Duration                         : 2h 35mn
Overall bit rate                 : 1 316 Kbps
Encoded date                     : UTC 2019-09-26 20:46:25
Tagged date                      : UTC 2019-09-26 20:46:25
Writing application              : Lavf56.15.102

Video
ID                               : 1
Format                           : AVC
Format/Info                      : Advanced Video Codec
Format profile                   : [email protected]
Format settings, CABAC           : No
Format settings, ReFrames        : 2 frames
Codec ID                         : avc1
Codec ID/Info                    : Advanced Video Coding
Duration                         : 2h 35mn
Bit rate mode                    : Variable
Bit rate                         : 1 200 Kbps
Width                            : 960 pixels
Height                           : 540 pixels
Display aspect ratio             : 16:9
Frame rate mode                  : Constant
Frame rate                       : 30.000 fps
Color space                      : YUV
Chroma subsampling               : 4:2:0
Bit depth                        : 8 bits
Scan type                        : Progressive
Bits/(Pixel*Frame)               : 0.077
Stream size                      : 1.29 GiB (90%)
Writing library                  : x264 core 142
Language                         : English
Encoded date                     : UTC 2019-09-26 20:46:25
Tagged date                      : UTC 2019-09-26 20:46:25

Audio
ID                               : 2
Format                           : AAC
Format/Info                      : Advanced Audio Codec
Format profile                   : LC
Codec ID                         : 40
Duration                         : 2h 35mn
Bit rate mode                    : Variable
Bit rate                         : 126 Kbps
Maximum bit rate                 : 128 Kbps
Channel(s)                       : 2 channels
Channel positions                : Front: L R
Sampling rate                    : 44.1 KHz
Compression mode                 : Lossy
Stream size                      : 141 MiB (10%)
Language                         : English
Encoded date                     : UTC 2019-09-26 20:46:25
Tagged date                      : UTC 2019-09-26 20:46:25

https://4downfiles.co/sbl5oc50vd31
https://dropapk.to/8z9y1qntuugj
https://earn4files.com/yxuufgw2oy2h
https://fileup.cc/7l3m0vocrapt
http://nitroflare.com/view/D21CAC87C1D6A47
https://rapidgator.net/file/a539870e53451aa3bc3df1438b8a01ec
https://uploadgig.com/file/download/B87Cbae8d179555b

ROH 2019 11 02 The Experience 720p WEBRIP x264-WH

General
Complete name                    : ROH.2019.11.02.The.Experience.720p.WEBRIP.x264-WH.mp4
Format                           : MPEG-4
Format profile                   : Base Media
Codec ID                         : isom
File size                        : 2.83 GiB
Duration                         : 2h 35mn
Overall bit rate                 : 2 597 Kbps
Encoded date                     : UTC 2019-09-26 20:46:25
Tagged date                      : UTC 2019-09-26 20:46:25
Writing application              : Lavf56.15.102

Video
ID                               : 1
Format                           : AVC
Format/Info                      : Advanced Video Codec
Format profile                   : [email protected]
Format settings, CABAC           : No
Format settings, ReFrames        : 2 frames
Codec ID                         : avc1
Codec ID/Info                    : Advanced Video Coding
Duration                         : 2h 35mn
Bit rate mode                    : Variable
Bit rate                         : 2 500 Kbps
Width                            : 1 280 pixels
Height                           : 720 pixels
Display aspect ratio             : 16:9
Frame rate mode                  : Constant
Frame rate                       : 30.000 fps
Color space                      : YUV
Chroma subsampling               : 4:2:0
Bit depth                        : 8 bits
Scan type                        : Progressive
Bits/(Pixel*Frame)               : 0.090
Stream size                      : 2.68 GiB (95%)
Writing library                  : x264 core 142
Language                         : English
Encoded date                     : UTC 2019-09-26 20:46:25
Tagged date                      : UTC 2019-09-26 20:46:25

Audio
ID                               : 2
Format                           : AAC
Format/Info                      : Advanced Audio Codec
Format profile                   : LC
Codec ID                         : 40
Duration                         : 2h 35mn
Bit rate mode                    : Variable
Bit rate                         : 126 Kbps
Maximum bit rate                 : 128 Kbps
Channel(s)                       : 2 channels
Channel positions                : Front: L R
Sampling rate                    : 44.1 KHz
Compression mode                 : Lossy
Stream size                      : 141 MiB (5%)
Language                         : English
Encoded date                     : UTC 2019-09-26 20:46:25
Tagged date                      : UTC 2019-09-26 20:46:25

https://dropapk.to/0cnwqdo4maio
https://fileup.cc/1vtrjvoinsva
http://nitroflare.com/view/4CD29EF91CE0F67
https://rapidgator.net/file/1c70917e5ff8ac74f5f6c5cd51e350a1

Leave a Reply

Your email address will not be published. Required fields are marked *