ROH 2019 09 06 Global Wars Espectacular Dearborn 1080p

ROH 2019 09 06 Global Wars Espectacular Dearborn 1080p WEB h264-HEEL

dOWNLOAD ROH 2019 09 06 Global Wars Espectacular Dearborn 1080p

ROH 2019 09 06 Global Wars Espectacular Dearborn 1080p
Top Prospect Tournament 2019 Semi Final Match
Dak Draper vs. The Haitian Sensation

Tag Team Match
Dalton Castle & Joe Hendry vs. Jay Lethal & Jonathan Gresham

Singles Match
Bandido vs. Jay Briscoe

Tag Team Match
The Kingdom (Matt Taven & Vinny Marseglia) vs. Triton & Volador Jr.

Eight Man Tag Team Match
El Barbaro Cavernario, Hechicero, Okumura & Rey Bucanero vs. Villain Enterprises (Brody King, Flip Gordon, Marty Scurll & PCO)

Singles Match
Rush vs. Stuka Jr.

General
Format : MPEG-4
Format profile : Base Media
Codec ID : isom
File size : 5.53 GiB
Duration : 3h 12mn
Overall bit rate : 4 119 Kbps
Writing application : Lavf58.30.100

Video
ID : 1
Format : AVC
Format/Info : Advanced Video Codec
Format profile : [email protected]
Format settings, CABAC : Yes
Format settings, ReFrames : 4 frames
Format settings, GOP : M=4, N=32
Codec ID : avc1
Codec ID/Info : Advanced Video Coding
Duration : 3h 12mn
Bit rate mode : Variable
Bit rate : 3 978 Kbps
Width : 1 920 pixels
Height : 1 080 pixels
Display aspect ratio : 16:9
Frame rate mode : Variable
Frame rate : 30.000 fps
Minimum frame rate : 10.000 fps
Maximum frame rate : 30.303 fps
Color space : YUV
Chroma subsampling : 4:2:0
Bit depth : 8 bits
Scan type : Progressive
Bits/(Pixel*Frame) : 0.064
Stream size : 5.34 GiB (97%)

Audio
ID : 2
Format : AAC
Format/Info : Advanced Audio Codec
Format profile : LC
Codec ID : 40
Duration : 3h 12mn
Bit rate mode : Constant
Bit rate : 132.3 Kbps
Channel(s) : 2 channels
Channel positions : Front: L R
Sampling rate : 48.0 KHz
Compression mode : Lossy
Stream size : 179 MiB (3%)

DOWNLOAD

4downfiles

https://4downfiles.org/4khlfc89qlx2

fileup
https://fileup.cc/wxuzuq4znkl5

nitroflare
http://nitroflare.com/view/A02073CAE8CEB1D

rapidgator
https://rapidgator.net/file/542e9e52090e3576757d9cc17ceb6a51

Leave a Reply

Your email address will not be published. Required fields are marked *