Riptide.Wrestling.2019.02.15.Deep.Six.2019.WEB.HEVC.x265-WH

Riptide.Wrestling.2019.02.15.Deep.Six.2019.WEB.HEVC.x265-WH

Riptide.Wrestling.2019.02.15.Deep.Six.2019.WEB.HEVC.x265-WH

General
Complete name                    : Riptide.Wrestling.2019.02.15.Deep.Six.2019.WEB.HEVC.x265-WH.mp4
Format                          : MPEG-4
Format profile                  : QuickTime
Codec ID                        : qt 
File size                        : 1.22 GiB
Duration                        : 2h 29mn
Overall bit rate                : 1 167 Kbps
Writing application              : Lavf55.33.100

Video
ID                              : 1
Format                          : hev1
Codec ID                        : hev1
Duration                        : 2h 29mn
Bit rate mode                    : Variable
Bit rate                        : 1 034 Kbps
Width                            : 712 pixels
Height                          : 400 pixels
Display aspect ratio            : 16:9
Frame rate mode                  : Constant
Frame rate                      : 25.000 fps
Bits/(Pixel*Frame)              : 0.145
Stream size                      : 1.08 GiB (89%)
Language                        : English

Audio
ID                              : 2
Format                          : AAC
Format/Info                      : Advanced Audio Codec
Format profile                  : LC
Codec ID                        : 40
Duration                        : 2h 29mn
Bit rate mode                    : Constant
Bit rate                        : 128 Kbps
Channel(s)                      : 2 channels
Channel positions                : Front: L R
Sampling rate                    : 44.1 KHz
Compression mode                : Lossy
Stream size                      : 137 MiB (11%)
Language                        : English

https://1fichier.com/?5gfcdbfgsuejothjfcwn
https://anonfile.com/HaqffeTemf
https://ddl.to/vfzgcs1vmltq
http://dl.free.fr/fd1KIXnYR
https://filerio.in/qj0avuvokqv2
http://filestore.to/?d=HH6RPGZL10


About PH.M.H

[Wrestling Best Uploader]

View all posts by PH.M.H

Leave a Reply

Your email address will not be published. Required fields are marked *