ROH State Of The Art 2019 06 01 720p WEB x264-DX

ROH State Of The Art 2019 06 01 720p WEB x264-DX

ROH State Of The Art 2019 06 01 720p WEB x264-DX

ROH State Of The Art 2019 06 01 720p WEB x264-DX

[EVENT]………..: ROH State Of The Art 6/1/2019 720p WEB DL x264 DX-TV mp4
[RELEASED]……..: 2019.06.1
[SOURCE]……….: WEB DL
[CONTAINER]…….: mp4
[SIZE]…………: 4.37 GB
[Capper Group]….: DX-TV
[Duration]……..: 3 h
[RESOLUTION]……: 1280 x 720 {16:9}@ 29.970 FPS
[VIDEO]………..: x264 @ 3500 kbps
[AUDIO]………..: AAC @ 129 kbps

Note :

missing last 2 minutes

General
Complete name : ROH State Of The Art 6-1-2019 720p WEB DL x264 DX-TV.mp4
Format : MPEG-4
Format profile : Base Media / Version 2
Codec ID : mp42 (mp42)
File size : 4.38 GiB
Duration : 2 h 52 min
Overall bit rate : 3 627 kb/s
Codirector : codirector
Production studio : studio
ContentType : Unknown Type
Encoded date : UTC 2019-06-02 07:09:42
Tagged date : UTC 2019-06-02 07:09:42

Video
ID : 1
Format : AVC
Format/Info : Advanced Video Codec
Format profile : [email protected]
Format settings : CABAC / 2 Ref Frames
Format settings, CABAC : Yes
Format settings, Reference : 2 frames
Format settings, GOP : M=3, N=25
Muxing mode : Container [email protected]
Codec ID : avc1
Codec ID/Info : Advanced Video Coding
Duration : 2 h 52 min
Bit rate : 3 501 kb/s
Width : 1 280 pixels
Height : 720 pixels
Display aspect ratio : 16:9
Frame rate mode : Constant
Frame rate : 30.000 FPS
Color space : YUV
Chroma subsampling : 4:2:0
Bit depth : 8 bits
Scan type : Progressive
Bits/(Pixel*Frame) : 0.127
Stream size : 4.22 GiB (96%)
Language : English
Codec configuration box : avcC

Audio
ID : 2
Format : AAC LC
Format/Info : Advanced Audio Codec Low Complexity
Codec ID : mp4a-40-2
Duration : 2 h 52 min
Bit rate mode : Constant
Bit rate : 118 kb/s
Channel(s) : 2 channels
Channel layout : L R
Sampling rate : 48.0 kHz
Frame rate : 46.875 FPS (1024 SPF)
Compression mode : Lossy
Stream size : 146 MiB (3%)
Title : Stereo
Language : English
Default : Yes
Alternate group : 1

ROH State Of The Art 2019 06 01 720p WEB x264-DX

1fichier.com/?kkf3zb88gxtvo8yrmuri
bitster.cz/file/97ea13
dl.free.fr/ve9Z2xkk4
file.bz/S6w4Ibt9n2
filerio.in/79ysw6eg0iej
filescdn.net/0a7iv357fv83
multiup.org/download/32eff18984a166f23126e3a850342ae1
nitroflare.com/view/2C060D40F178877
openload.co/f/VCEPQSLxb8E
rg.to/file/1578ef6376ad0e35496c33292a9c75e4
turbobit.net/06kmoaabsicf.html

 54 total views,  1 views today

ROH State Of The Art 2019 06 01 720p WEB x264-DX

WH : Source OF Wrestling Releases / Home OF WH Releases

Buy Premium or Renew From WH Links to Keep it Alive

About PH.M.H

[Wrestling Best Uploader]

View all posts by PH.M.H →

Leave a Reply

Your email address will not be published. Required fields are marked *