ROH Free Enterprise 2020 WEBRip x264-WH / 720p

ROH Free Enterprise 2020 WEBRip x264-WH / 720p

ROH Free Enterprise 2020 WEBRip x264-WH / 720p

ROH 2020 02 09 Free Enterprise WEBRip x264-WH

General
Complete name : ROH.2020.02.09.Free.Enterprise.WEBRip.x264-WH.mp4
Format : MPEG-4
Codec ID : isom (isom/iso2/avc1/mp41)
File size : 1.34 GiB
Duration : 3 h 43 min
Writing application : Lavf58.20.100

Video
Format settings, Reference : 4 frames
Codec ID : avc1
Codec ID/Info : Advanced Video Coding
Duration : 3 h 43 min
Bit rate : 771 kb/s
Width : 850 pixels
Height : 480 pixels
Display aspect ratio : 16:9
Frame rate mode : Variable
Frame rate : 25.000 FPS
Minimum frame rate : 12.346 FPS
Maximum frame rate : 25.000 FPS
Color space : YUV
Chroma subsampling : 4:2:0
Bit depth : 8 bits
Scan type : Progressive
Bits/(Pixel*Frame) : 0.076
Stream size : 1.21 GiB (90%)
Writing library : x264 core 157
Codec configuration box : avcC

Audio
ID : 2
Format : AAC LC
Codec ID : mp4a-40-2
Duration : 3 h 43 min
Bit rate mode : Constant
Bit rate : 80.0 kb/s
Channel(s) : 1 channel
Channel layout : C
Sampling rate : 44.1 kHz
Frame rate : 43.066 FPS (1024 SPF)
Compression mode : Lossy
Stream size : 128 MiB (9%)
Default : Yes
Alternate group : 1

ROH 2020 02 09 Free Enterprise 720p WEBRip x264-WH

General
Complete name : ROH.2020.02.09.Free.Enterprise.720p.WEBRip.x264-WH.mp4
Format : MPEG-4
Format profile : Base Media
Codec ID : isom (isom/iso2/avc1/mp41)
File size : 4.93 GiB
Duration : 3 h 43 min
Writing application : Lavf58.35.104
Copyright : copyright
Comment : description

Video
ID : 1
Format : AVC
Codec ID : avc1
Codec ID/Info : Advanced Video Coding
Duration : 3 h 43 min
Bit rate : 3 000 kb/s
Width : 1 280 pixels
Height : 720 pixels
Display aspect ratio : 16:9
Frame rate mode : Variable
Frame rate : 30.000 FPS
Minimum frame rate : 29.412 FPS
Maximum frame rate : 30.303 FPS
Color space : YUV
Chroma subsampling : 4:2:0
Bit depth : 8 bits
Scan type : Progressive
Bits/(Pixel*Frame) : 0.109
Stream size : 4.68 GiB (95%)
Codec configuration box : avcC

Audio
ID : 2
Format : AAC LC
Codec ID : mp4a-40-2
Duration : 3 h 43 min
Bit rate mode : Constant
Bit rate : 152 kb/s
Channel(s) : 2 channels
Channel layout : L R
Sampling rate : 44.1 kHz
Frame rate : 43.066 FPS (1024 SPF)
Compression mode : Lossy
Stream size : 243 MiB (5%)
Title : Track1
Default : Yes
Alternate group : 1

Watch ROH Free Enterprise 2020


 194 total views,  1 views today

ROH Free Enterprise 2020 WEBRip x264-WH / 720p

WH : Source OF Wrestling Releases / Home OF WH Releases

Buy Premium or Renew From WH Links to Keep it Alive

About PH.M.H

[Wrestling Best Uploader]

View all posts by PH.M.H →

6 Comments on “ROH Free Enterprise 2020 WEBRip x264-WH / 720p”

  1. Please use these uploading sites for mirrors for the 720p version. A single link would be best.

    mega.nz
    1fichier.com

    Also, I hope you use these two sites in all of your future wrestling releases.
    Thanks.

Leave a Reply

Your email address will not be published. Required fields are marked *