ROH 2019 06 28 Best in the World 1080p WEB h264-HEEL

ROH 2019 06 28 Best in the World 1080p WEB h264-HEEL

Download ROH Best in the World 2019 1080p full show free hosts

ROH 2019 06 28 Best in the World 1080p WEB h264-HEEL

Download ROH Best in the World 2019 free links

ROH.2019.06.28.Best.in.the.World.1080p.WEB.h264-HEEL 

Includes Kickoff. 

Video bitrate: 3941kbps 

– 

Singles Match 
Flip Gordon vs. Rush 

Singles Match 
Dalton Castle vs. Dragon Lee 

Tag Team Match 
Jenny Rose & Kelly Klein vs. The Allure (Angelina Love & Mandy Leon) 

Best Of Three Series Match #3 
Jay Lethal vs. Kenny King 

Pure Rules Match 
Jonathan Gresham vs. Silas Young 

Tag Team Match 
Eli Drake & Nick Aldis vs. The Briscoe Brothers (Jay Briscoe & Mark Briscoe) 

ROH World Television Title Match 
Bandido vs. Shane Taylor 

ROH World Six Man Tag Team Title Match 
Villain Enterprises (Brody King, Marty Scurll & PCO) (c) vs. Mark Haskins, PJ Black & Tracy Williams 

ROH World Title Match 
Matt Taven (c) vs. Jeff Cobb

General
Complete name :ROH.2019.06.28.Best.in.the.World.1080p.WEB.h264-HEEL.mp4
Format : MPEG-4
Format profile : Base Media
Codec ID : isom (isom/iso2/avc1/mp41)
File size : 5.91 GiB
Duration : 3 h 27 min
Overall bit rate : 4 084 kb/s
Writing application : Lavf58.27.103

Video
ID : 1
Format : AVC
Format/Info : Advanced Video Codec
Format profile : [email protected]
Format settings : CABAC / 4 Ref Frames
Format settings, CABAC : Yes
Format settings, Reference : 4 frames
Codec ID : avc1
Codec ID/Info : Advanced Video Coding
Duration : 3 h 27 min
Bit rate : 3 941 kb/s
Width : 1 920 pixels
Height : 1 080 pixels
Display aspect ratio : 16:9
Frame rate mode : Variable
Frame rate : 30.000 FPS
Minimum frame rate : 25.000 FPS
Maximum frame rate : 30.303 FPS
Color space : YUV
Chroma subsampling : 4:2:0
Bit depth : 8 bits
Scan type : Progressive
Bits/(Pixel*Frame) : 0.063
Stream size : 5.70 GiB (96%)
Codec configuration box : avcC

Audio
ID : 2
Format : AAC LC
Format/Info : Advanced Audio Codec Low Complexity
Codec ID : mp4a-40-2
Duration : 3 h 27 min
Bit rate mode : Constant
Bit rate : 132 kb/s
Channel(s) : 2 channels
Channel layout : L R
Sampling rate : 44.1 kHz
Frame rate : 43.066 FPS (1024 SPF)
Compression mode : Lossy
Stream size : 194 MiB (3%)
Default : Yes
Alternate group : 1

Text #1
ID : 1-CC1
Format : EIA-608
Muxing mode : SCTE 128 / DTVCC Transport
Muxing mode, more info : Muxed in Video #1
Duration : 3 h 27 min
Bit rate mode : Constant
Stream size : 0.00 Byte (0%)
Encoded stream size : 0.00 Byte (0%)
CaptionServiceName : CC1

Text #2
ID : 1-1
Format : EIA-708
Muxing mode : SCTE 128 / DTVCC Transport
Muxing mode, more info : Muxed in Video #1
Duration : 3 h 27 min
Bit rate mode : Constant
Stream size : 0.00 Byte (0%)
Encoded stream size : 0.00 Byte (0%)

Size5.91 GB
ROH 2019 06 28 Best in the World 1080p WEB h264-HEEL

ONE LINK DOWNLOAD

filetransfer [Recommended by me]

filetransfer.io/data-package/klTqqmrz

multiup

multiup.org/download/39af08b0ee28ddcd3f563a00add9c2b7

turbobit
turbobit.net/1b23wg1hfpvi.html

uptobox

uptobox.com/y1d0g45aracv

1fichier

1fichier.com/?gpyc56hp7g0u6cv65oi9

bayfiles

bayfiles.com/Y3p6e9x4n5

dl.free.fr
dl.free.fr/tE1VOUkPO

anonfile
anonfile.com/Jft8e8x5n6

file.bz

file.bz/70w6e1x7n3

nitroflare

nitroflare.com/view/780033420E10766

Rapidgator

rg.to/file/fc8f22c7f5ae6765db3ea4dac3b2e1e2

STREAMABLE LINKS [SIZE WILL BE REDUCED]

Verystream

verystream.com/stream/hVVw9S1FxvT

nxload

nxload.com/v/JFFyQ4MRZh4N

openload

openload.co/f/hOTxcHUcaEs

2 GB [4 PARTS] // INTERCHANGEABLE LINKS

1fichier

1fichier.com/?t2nwif1jvt9c3g52ru3k
1fichier.com/?wrb6p4ssn7ke143o63pz
1fichier.com/?83xicestzvw4kuc6i7hx
1fichier.com/?t68e1b5uywwikjiguasq

anonfile
anonfile.com/gdC5e6x3nb
anonfile.com/NcCee6x0n8
anonfile.com/U4D4e7xfna
anonfile.com/4d8ee8xfn5

bayfiles

bayfiles.com/61C8e3x3nd
bayfiles.com/9dD8edx8nd
bayfiles.com/15G9eex0nf
bayfiles.com/g1Ebe3x4n3

dl.free.fr
dl.free.fr/iytI2LH1y
dl.free.fr/nZWgDYyRJ
dl.free.fr/i9hRElfo9
dl.free.fr/glSiRnrIC

file.bz

file.bz/b4L7e2xen1
file.bz/z6Jee9x7n9
file.bz/uaL8e3x1nf
file.bz/lbG6e5xbnb

filefactory
www.filefactory.com/file/2fbt0a789x0h
www.filefactory.com/file/34o3m0qucsqd
www.filefactory.com/file/6yluhhqu77cj
www.filefactory.com/file/282igiyzrg69

uptobox

uptobox.com/hkodr1whnztj
uptobox.com/6qwl9pe8078z
uptobox.com/obqy50997fqi
uptobox.com/8i4yl8lqvv93

turbobit

turbobit.net/dr5egqoe4790.html
turbobit.net/izppir12jchj.html
turbobit.net/x05320ojf7uv.html
turbobit.net/8ssck0zw9yeq.html

multiup

multiup.org/download/6338ac30210c81c9da89213a35aa72c9
multiup.org/download/622c1d12a1d3955771f77febf8f12609
multiup.org/download/fa63b4dd31526055749ad7ed8070188d
multiup.org/download/fcd656c3c8bdee8dfe3b0482f63814f1

 102 total views,  1 views today

ROH 2019 06 28 Best in the World 1080p WEB h264-HEEL

WH : Source OF Wrestling Releases / Home OF WH Releases

Buy Premium or Renew From WH Links to Keep it Alive

About PH.M.H

[Wrestling Best Uploader]

View all posts by PH.M.H →

Leave a Reply

Your email address will not be published. Required fields are marked *