PWG 2019 05 10 Mystery Vortex 6 720p

PWG 2019 05 10 Mystery Vortex 6 720p

dOWNLOAD Pro Wrestling Guerrilla (PWG) Mystery Vortex VI

PWG 2019 05 10 Mystery Vortex 6 720p

PWG 2019 05 10

Pro Wrestling Guerrilla presents “Mystery Vortex 6” held May 10, 2019 in Los Angeles, CA

Singles Match
Tony Deppen vs. Trey Miguel

Singles Match
Orange Cassidy vs. Chuck Taylor

Pro Wrestling Guerrilla World Championship Title Match
Jeff Cobb (Champion) vs. Jonathan Gresham (Challenger)

Three-way Match
Jake Atlas vs. Brody King vs. Trent?

Singles Match
Jungle Boy vs. Puma King

Pro Wrestling Guerrilla World Tag Team Championship Title Match
The Rascalz (Zachary Wentz & Dezmond Xavier – Champions) vs. Flamita & Rey Horus (Challengers)

Guerrilla Warfare Match
Darby Allin vs. Joey Janela

General
Complete name : PWG.Mystery.Vortex.6.720p.mp4
Format : MPEG-4
Format profile : Base Media / Version 2
Codec ID : mp42
File size : 3.67 GiB
Duration : 1h 46mn
Overall bit rate : 4 949 Kbps
Encoded date : UTC 2019-05-22 04:57:51
Tagged date : UTC 2019-05-22 05:01:14
©TIM : 00;00;00;00
©TSC : 30000
©TSZ : 1001

Video
ID : 1
Format : AVC
Format/Info : Advanced Video Codec
Format profile : [email protected]
Format settings, CABAC : Yes
Format settings, ReFrames : 3 frames
Codec ID : avc1
Codec ID/Info : Advanced Video Coding
Duration : 1h 46mn
Bit rate mode : Variable
Bit rate : 4 627 Kbps
Maximum bit rate : 5 000 Kbps
Width : 1 280 pixels
Height : 720 pixels
Display aspect ratio : 16:9
Frame rate mode : Constant
Frame rate : 29.970 fps
Standard : NTSC
Color space : YUV
Chroma subsampling : 4:2:0
Bit depth : 8 bits
Scan type : Progressive
Bits/(Pixel*Frame) : 0.168
Stream size : 3.43 GiB (93%)
Language : English
Encoded date : UTC 2019-05-22 04:57:51
Tagged date : UTC 2019-05-22 04:57:51
Color primaries : BT.709-5, BT.1361, IEC 61966-2-4, SMPTE RP177
Transfer characteristics : BT.709-5, BT.1361
Matrix coefficients : BT.709-5, BT.1361, IEC 61966-2-4 709, SMPTE RP177

Audio
ID : 2
Format : AAC
Format/Info : Advanced Audio Codec
Format profile : LC
Codec ID : 40
Duration : 1h 46mn
Bit rate mode : Variable
Bit rate : 317 Kbps
Maximum bit rate : 452 Kbps
Channel(s) : 2 channels
Channel positions : Front: L R
Sampling rate : 48.0 KHz
Compression mode : Lossy
Stream size : 241 MiB (6%)
Language : English
Encoded date : UTC 2019-05-22 04:57:51
Tagged date : UTC 2019-05-22 04:57:51

download

DOWNLOAD AS A VIP MAN !!

ONE LINK DOWNLOAD

filetransfer [KING OF HOSTS]

https://filetransfer.io/data-package/S0jllvoz

1fichier

https://1fichier.com/?aab52vwgt16zvds2lc18

4downfiles
https://4downfiles.org/rxcyvi5iv416

dl.free.fr
http://dl.free.fr/fKK2NBBUn

fileup
https://fileup.cc/i25rvhwpyv8l

uploadgig
https://uploadgig.com/file/download/a3d5066739422cca

userscloud
https://userscloud.com/dvshibrmqr8k

multiup
https://multiup.org/download/45e4b766e79284d155d63164e60b7148

nitroflare
http://nitroflare.com/view/CE0D545B4A409A7

rapidgator
https://rapidgator.net/file/a8655bdbc084f8a7a5a1c3f2820f4e42

2 GB [2 PARTS] // INTERCHANGEABLE LINKS

bdupload

https://dl.bdupload.in/q6slngzbymdh
https://dl.bdupload.in/7gedv8u24okw

Share-online
http://www.share-online.biz/dl/M5XYIJXP3ZZ
http://www.share-online.biz/dl/EDGYIJXPH4

uptomega
https://uptomega.com/anhht8sapat9
https://uptomega.com/ocdn8sl33xh7

One Comment on “PWG 2019 05 10 Mystery Vortex 6 720p”

Leave a Reply

Your email address will not be published. Required fields are marked *