NOAH Starting Over 2019 720p HDTV

NOAH Starting Over 2019 720p HDTV

NOAH 2019 12 03 Starting Over 2019 720p HDTV

NOAH Starting Over 2019 720p HDTV
DescriptionNOAH.2019.12.03.Starting.Over.2019.720p.HDTV.x264-PuroresuDream

Event Date: 2019.12.03
Location: Tokyo, Japan
Venue: Korakuen Hall
Source: Samurai  TV
__________________________

Six Man Tag Team Match
Hi69, Junta Miyawaki & Minoru Tanaka
vs. Hajime Ohara, NOSAWA Rongai & Kinya Okada

Singles Match
Dragon Bane vs. El Hijo de Canis Lupus

Six Man Tag Team Match
Daisuke Harada, Tadasuke & YO-HEY
vs. Atsushi Kotoge, Kotaro Suzuki & Yoshinari Ogawa

Eight Man Tag Team Match
Mohammed Yone, Quiet Storm, Akitoshi Saito & Masao Inoue
vs. Hitoshi Kumano, Kaito Kiyomiya, Naomichi Marufuji &
Shuhei Taniguchi

GHC Junior Heavyweight Title Match
HAYATA (c) vs. Chris Ridgeway

Six Man Tag Team Match
Hideki Suzuki, Kazuyuki Fujita & Takashi Sugiura
vs. Kenou, Masa Kitamiya & Yoshiki Inamura

Singles Match
Go Shiozaki vs. Katsuhiko Nakajima

__________________________


File Details:

Release Date: 2019.12.03
Runtime: 1h 54m
Size: 1.16GB
Video: x264 – 1280 x 720 – 30 fps @ 1378 kb/s
Audio: AAC LC @ 64 kb/s
Notes: Some matches are clipped/edited

General
Format : MPEG-4
Format profile : Base Media / Version 2
Codec ID : mp42
File size : 1.16 GiB
Duration : 1h 54mn
Overall bit rate : 1 446 Kbps
Encoded date : UTC 2019-12-08 19:05:51
Tagged date : UTC 2019-12-08 19:06:04

Video
ID : 1
Format : AVC
Format/Info : Advanced Video Codec
Format profile : [email protected]
Format settings, CABAC : Yes
Format settings, ReFrames : 4 frames
Codec ID : avc1
Codec ID/Info : Advanced Video Coding
Duration : 1h 54mn
Bit rate mode : Variable
Bit rate : 1 378 Kbps
Width : 1 280 pixels
Height : 720 pixels
Display aspect ratio : 16:9
Frame rate mode : Variable
Frame rate : 30.000 fps
Minimum frame rate : 29.412 fps
Maximum frame rate : 30.303 fps
Standard : Component
Color space : YUV
Chroma subsampling : 4:2:0
Bit depth : 8 bits
Scan type : Progressive
Bits/(Pixel*Frame) : 0.050
Stream size : 1.10 GiB (95%)

Audio
ID : 2
Format : AAC
Format/Info : Advanced Audio Codec
Format profile : HE-AACv2 / HE-AAC / LC
Codec ID : 40
Duration : 1h 54mn
Bit rate mode : Variable
Bit rate : 62.7 Kbps
Channel(s) : 2 channels / 1 channel / 1 channel
Channel positions : Front: L R / Front: C / Front: C
Sampling rate : 48.0 KHz / 48.0 KHz / 24.0 KHz
Compression mode : Lossy
Stream size : 51.3 MiB (4%)

dropapk.to/7ikwmudjuckb
earn4files.com/2krnix2aumed
katfile.com/izuzlz7oqo4h
nitroflare.com/view/96E70F962068B8C
rockfile.co/maop6gsw107b.html

 128 total views,  1 views today

NOAH Starting Over 2019 720p HDTV

WH : Source OF Wrestling Releases / Home OF WH Releases

Buy Premium or Renew From WH Links to Keep it Alive

About PH.M.H

[Wrestling Best Uploader]

View all posts by PH.M.H →

Leave a Reply

Your email address will not be published. Required fields are marked *