NOAH All Four Sides Day 2 -LATE

NOAH All Four Sides Day 2

NOAH 2020 06 20 All Four Sides Day 2 JAPANESE WEB h264-LATE

NOAH All Four Sides Day 2 -LATE
File information
=== Better LATE than never! ===

TITLE:   NOAH.2020.06.20.All.Four.Sides.Day.2.JAPANESE.WEB.h264-LATE
DATE:    2020.06.20
RUNTIME: 1h 51m 3s
SIZE:    1.49 GB
VIDEO:   h264 | 1829 kbps | 960x540 px | 30.00 fps
AUDIO:   AAC | 96 kbps

===============================
Single download links

Rapidgator // NitroFlare // Uploadgig // ddl // RockFile

More detailed inFo :

General
Complete name : Day.2.JAPANESE.WEB.h264-LATE.mkv
Format : Matroska
Format version : Version 4
File size : 1.50 GiB
Duration : 1 h 51 min
Overall bit rate : 1 928 kb/s
Encoded date : NOAH

Video
ID : NOAH
Format : AVC
Codec ID : V_MPEG4/ISO/AVC
Duration : 1 h 51 min
Bit rate : 1 829 kb/s
Width : 960 pixels
Height : 540 pixels
Display aspect ratio : 16:9
Frame rate mode : Constant
Frame rate : 30.000 FPS
Color space : YUV
Chroma subsampling : 4:2:0
Bit depth : 8 bits
Scan type : Progressive
Bits/(Pixel*Frame) : 0.118
Stream size : 1.42 GiB (95%)
Default : NOAH
Forced : NOAH
Color range : Limited
Color primaries : BT.601 PAL
Transfer characteristics : BT.601
Matrix coefficients : BT.470 System B/G

Audio
ID : NOAH
Format : AAC LC
Codec ID : A_AAC-2
Duration : 1 h 51 min
Bit rate : 96.0 kb/s
Channel(s) : 2 channels
Channel layout : L R
Sampling rate : 44.1 kHz
Frame rate : 43.066 FPS (1024 SPF)
Compression mode : Lossy
Delay relative to video : -166 ms
Stream size : 76.3 MiB (5%)
Language : English
Default : NOAH
Forced : NOAH

References

WH Main Homepage

 215 total views,  1 views today

NOAH All Four Sides Day 2 -LATE

WH : Source OF Wrestling Releases / Home OF WH Releases

Buy Premium or Renew From WH Links to Keep it Alive

About PH.M.H

[Wrestling Best Uploader]

View all posts by PH.M.H →

Leave a Reply

Your email address will not be published. Required fields are marked *