NOAH All Four Sides 2020 Day 1

NOAH All Four Sides 2020 Day 1
NOAH All Four Sides 2020 Day 1
File inFormation

General
Complete name :NOAH.2020.06.19.All.Four.Sides.Day.1.JAPANESE.WEB.h264-LATE.mkv
Format : Matroska
Format version : Version 4
File size : 1.40 GiB
Duration : 1 h 44 min
Overall bit rate : 1 931 kb/s

Video
ID : Noah
Format : AVC
Duration : 1 h 44 min
Bit rate : 1 833 kb/s
Width : 960 pixels
Height : 540 pixels
Display aspect ratio : 16:9
Frame rate mode : Constant
Frame rate : 30.000 FPS
Color space : YUV
Chroma subsampling : 4:2:0
Bit depth : 8 bits
Scan type : Progressive
Bits/(Pixel*Frame) : 0.118
Stream size : 1.33 GiB (95%)
Default : NOAH
Forced : NoAh
Color range : Limited
Color primaries : BT.601 PAL
Transfer characteristics : BT.601
Matrix coefficients : NOAH

Audio
ID :NOAH
Format : AAC LC
Codec ID : A_AAC-2
Duration : 1 h 44 min
Bit rate : 96.0 kb/s
Channel(s) : 2 channels
Channel layout : L R
Sampling rate : 44.1 kHz
Frame rate : 43.066 FPS (1024 SPF)
Compression mode : Lossy
Delay relative to video : -166 ms
Stream size : 71.4 MiB (5%)
Language : English
Default : NOAH
Forced : NOAH

Single download links

Rapidgator // Nitroflare // Uploadgig // ddl // RocKFile

References

Homepage Premium Site

 251 total views,  1 views today

NOAH All Four Sides 2020 Day 1

WH : Source OF Wrestling Releases / Home OF WH Releases

Buy Premium or Renew From WH Links to Keep it Alive

About PH.M.H

[Wrestling Best Uploader]

View all posts by PH.M.H →

Leave a Reply

Your email address will not be published. Required fields are marked *