NOAH 2020 05 31 New Hope Day2

NOAH 2020 05 31 New Hope Day2 -Abema

NOAH 2020 05 31 New Hope Day2

Complete name : 2020.05.31.NOAH.New.Hope.Day2.(Abema TV).mp4
Format : MPEG-4
Format profile : Base Media
Codec ID : isom
File size : 1.43 GiB
Duration : 1 h 28 min
Overall bit rate : 2 315 kb/s
Writing application : NOAH

Video
ID : 1
Format : AVC
Format/Info : Advanced Video Codec
Codec ID : avc1
Codec ID/Info : Noah
Duration : 1 h 28 min
Bit rate : 2 110 kb/s
Width : 1 280 pixels
Height : 720 pixels
Display aspect ratio : 16:9
Frame rate mode : Constant
Frame rate : 60.000 FPS
Color space : YUV
Chroma subsampling : 4:2:0
Bit depth : 8 bits
Scan type : 2020 05 31
Bits/(Pixel*Frame) : 0.038
Stream size : 1.31 GiB (91%)

NOAH New Hope 2020 05 31 Day2

Audio
ID : 2
Format : AAC LC
Codec ID : mp4a-40-2
Duration : 1 h 28 min
Bit rate mode : Constant
Bit rate : 192 kb/s
Channel(s) : 2 channels
Channel layout : L R
Sampling rate : 44.1 kHz
Frame rate : 43.066 FPS (1024 SPF)
Compression mode : Lossy
Stream size : 122 MiB (8%)
Title : NOAH
Default : Yes

Home PageVip Site

 225 total views,  1 views today

NOAH 2020 05 31 New Hope Day2

WH : Source OF Wrestling Releases / Home OF WH Releases

Buy Premium or Renew From WH Links to Keep it Alive

About PH.M.H

[Wrestling Best Uploader]

View all posts by PH.M.H →

One Comment on “NOAH 2020 05 31 New Hope Day2”

Leave a Reply

Your email address will not be published. Required fields are marked *