NJPW Together Project Special 2020

NJPW Together Project Special 2020

download NJPW 2020 06 15 Together Project Special 540p NJPWWorld
NJPW Together Project Special 2020
File information

General
Complete name : NJPW.2020.06.15.Together.Project.Special.540p.NJPWWorld.mp4
Format : MPEG-4
Format profile : Base Media
Codec ID : isom (isom/iso2/avc1/mp41)
File size : 2.24 GiB
Duration : 2 h 44 min
Overall bit rate mode : Variable
Overall bit rate : 1 948 kb/s

Video
ID : 1
Format : AVC
Duration : 2 h 44 min
Bit rate : 1 837 kb/s
Width : 960 pixels
Height : 540 pixels
Display aspect ratio : 16:9
Frame rate mode : Variable
Frame rate : 30.000 FPS
Minimum frame rate : 29.412 FPS
Maximum frame rate : 30.303 FPS
Color space : YUV
Chroma subsampling : 4:2:0
Bit depth : 8 bits
Scan type : Progressive
Bits/(Pixel*Frame) : 0.118
Stream size : 2.12 GiB (94%)
Color range : Limited
Color primaries : BT.601 PAL
Transfer characteristics : BT.601
Matrix coefficients : BT.470 System B/G
Codec configuration box : avcC

Audio
ID : 2
Format : AAC LC
Codec ID : mp4a-40-2
Duration : 2 h 44 min
Bit rate mode : Variable
Bit rate : 99.3 kb/s
Maximum bit rate : 125 kb/s
Channel(s) : 2 channels
Channel layout : L R
Sampling rate : 44.1 kHz
Frame rate : 43.066 FPS (1024 SPF)
Compression mode : Lossy
Stream size : 117 MiB (5%)
Language : English
Default : Yes
Alternate group : 1

Single download links

Rapidgator // NitroFlare // Uploadgig // RockFile

references

Home PagePremium Site

 400 total views,  2 views today

NJPW Together Project Special 2020

WH : Source OF Wrestling Releases / Home OF WH Releases

Buy Premium or Renew From WH Links to Keep it Alive

About PH.M.H

[Wrestling Best Uploader]

View all posts by PH.M.H →

Leave a Reply

Your email address will not be published. Required fields are marked *