NJPW New Japan Cup 2020 Day 5

NJPW New Japan Cup 2020 Day 5

NJPW 2020 06 24 New Japan Cup Day 5 540p WEB-DL x264-Lopatar

NJPW New Japan Cup 2020 Day 5
File information
Description[SIZE]: 1.65 GB
[SOURCE]: NJPW World
[CONTAINER]: mp4
[RESOLUTION]: 960 x 540 @ 30 FPS
[VIDEO]: x264 @ 1813 Kbps
[AUDIO – JAPANESE]: AAC 2.0 @ 99.1 kbps
[LENGTH]: 02:03:00

Japan Cup 2020
Matches Card

NEW JAPAN CUP 2020 2ND ROUND (NO TIME LIMIT)
Taiji Ishimori vs. Yoshinobu Kanemaru

NEW JAPAN CUP 2020 2ND ROUND (NO TIME LIMIT)
Togi Makabe vs. Tomohiro Ishii

TAG TEAM MATCH (30 MINUTES TIME LIMIT)
Ryusuke Taguchi, Hiroshi Tanahashi & Kota Ibushi
vs. DOUKI, Zack Sabre Jr & Taichi

NEW JAPAN CUP 2020 2ND ROUND (NO TIME LIMIT)
Toru Yano vs. Hiromu Takahashi

NEW JAPAN CUP 2020 2ND ROUND (NO TIME LIMIT)
Kazuchika Okada vs. Yuji Nagata

detailed file information

General
Complete name : NJPW.2020.06.24.New.Japan.Cup.Day.5.540p.WEB-DL.x264-Lopatar.mp4
Format : MPEG-4
Format profile : Base Media
Codec ID : isom (isom/iso2/avc1/mp41)
File size : 1.65 GiB
Duration : 2 h 3 min
Overall bit rate : 1 923 kb/s
Writing application : Lavf58.29.100

Video
ID : Japan Cup 2020
Format : AVC
Codec ID : avc1
Duration : 2 h 3 min
Bit rate : 1 813 kb/s
Width : 960 pixels
Height : 540 pixels
Display aspect ratio : 16:9
Frame rate mode : Variable
Frame rate : 30.000 FPS
Minimum frame rate : 29.412 FPS
Maximum frame rate : 30.303 FPS
Color space : YUV
Chroma subsampling : 4:2:0
Bit depth : 8 bits
Scan type : Progressive
Bits/(Pixel*Frame) : 0.117
Stream size : 1.56 GiB (94%)
Color range : Limited
Color primaries : BT.601 PAL
Transfer characteristics : BT.601
Matrix coefficients : BT.470 System B/G
Codec configuration box : Japan Cup 2020

Audio
ID : Japan Cup 2020
Format : AAC LC
Codec ID : mp4a-40-2
Duration : 2 h 3 min
Bit rate mode : Constant
Bit rate : 99.1 kb/s
Channel(s) : 2 channels
Channel layout : L R
Sampling rate : 44.1 kHz
Frame rate : 43.066 FPS (1024 SPF)
Compression mode : Lossy
Stream size : 87.2 MiB (5%)
Default : Yes
Alternate group : Japan Cup 2020

Single download links

Rapidgator // Nitroflare // Uploadgig // RockFile // ddl

References

Links : WH – – IMDB

 353 total views,  1 views today

NJPW New Japan Cup 2020 Day 5

WH : Source OF Wrestling Releases / Home OF WH Releases

Buy Premium or Renew From WH Links to Keep it Alive

About PH.M.H

[Wrestling Best Uploader]

View all posts by PH.M.H →

Leave a Reply

Your email address will not be published. Required fields are marked *