NJPW New Japan Cup 2020 Day 2 English

NJPW New Japan Cup 2020 Day 2 English
NJPW New Japan Cup 2020 Day 2 English

[English] NJPW 2020 06 17 New Japan Cup Day 2 ENG 720p WEB-DL x264-Lopatar

Taped English commentary version that was added today to NJPW World

[SIZE]: 1.68 GB
[SOURCE]: NJPW World
[CONTAINER]: mp4
[RESOLUTION]: 1280 x 720 @ 30 FPS
[VIDEO]: x264 @ 1904 Kbps
[AUDIO - ENGLISH]: AAC 2.0 @ 92.3 kbps
[LENGTH]: 01:59:50

NEW JAPAN CUP 2020 1ST ROUND (NO TIME LIMIT)
Gabriel Kidd vs. Taiji Ishimori

NEW JAPAN CUP 2020 1ST ROUND (NO TIME LIMIT)
Yuya Uemura vs. Yoshinobu Kanemaru

TAG TEAM MATCH (30 MINUTES TIME LIMIT)
SHO, YOH, YOSHI-HASHI & Hirooki Goto vs.
 BUSHI, Shingo Takagi, SANADA & EVIL

NEW JAPAN CUP 2020 1ST ROUND (NO TIME LIMIT)
Yuji Nagata vs. Minoru Suzuki

NEW JAPAN CUP 2020 1ST ROUND (NO TIME LIMIT)
Kazuchika Okada vs. Gedo
detailed file info :

General
Complete name : 720p.WEB-DL.x264-Lopatar.mp4
Format : MPEG-4
Format profile : Base Media
Codec ID : isom- Japan Cup
File size : 1.68 GiB
Duration : 1 h 59 min
Overall bit rate : 2 009 kb/s
Writing application : Lavf58.29.100

Video
ID :Japan Cup
Format : AVC
Codec ID : Japan Cup
Duration : 1 h 59 min
Bit rate : 1 904 kb/s
Width : 1 280 pixels
Height : 720 pixels
Display aspect ratio : 16:9
Frame rate mode : Constant
Frame rate : 30.000 FPS
Color space : YUV
Chroma subsampling : 4:2:0
Bit depth : 8 bits
Scan type : Progressive
Bits/(Pixel*Frame) : 0.069
Stream size : 1.60 GiB (95%)
Writing library : x264 core 130 r2273 b3065e6
Codec configuration box : Japan Cup

Audio
ID : Japan Cup
Format : AAC LC
Codec ID : mp4a-40-2
Duration : 1 h 59 min
Bit rate mode : Constant
Bit rate : 92.3 kb/s
Channel(s) : 2 channels
Channel layout : L R
Sampling rate : 44.1 kHz
Frame rate : 43.066 FPS (1024 SPF)
Compression mode : Lossy
Stream size : 79.1 MiB (5%)
Default : Japan Cup
Alternate group : Japan Cup

Single download links

Rapidgator // Nitroflare // Uploadgig // ddl // RockFile

references

homepage premium site

 276 total views,  1 views today

NJPW New Japan Cup 2020 Day 2 English

WH : Source OF Wrestling Releases / Home OF WH Releases

Buy Premium or Renew From WH Links to Keep it Alive

About PH.M.H

[Wrestling Best Uploader]

View all posts by PH.M.H →

Leave a Reply

Your email address will not be published. Required fields are marked *