NJPW New Japan Cup 2020 Day 1 English

NJPW New Japan Cup 2020 Day 1 English
NJPW New Japan Cup 2020 Day 1 English

[English] NJPW 2020 06 16 New Japan Cup Day 1 ENG 720p WEB-DL x264-Lopatar

inFormation
Taped English commentary version that was added today to NJPW World

[SIZE]: 1.69 GB
[SOURCE]: NJPW World
[CONTAINER]: mp4
[RESOLUTION]: 1280 x 720 @ 30 FPS
[VIDEO]: x264 @ 1904 Kbps
[AUDIO - ENGLISH]: AAC 2.0 @ 93.6 kbps
[LENGTH]: 02:00:10

NEW JAPAN CUP 2020 1ST ROUND (NO TIME LIMIT)
Togi Makabe vs. Yota Tsuji

NEW JAPAN CUP 2020 1ST ROUND (NO TIME LIMIT)
Toru Yano vs. Jado

TAG TEAM MATCH (30 MINUTES TIME LIMIT)
Yuya Uemura, Yuji Nagata, Kota Ibushi & Hiroshi Tanahashi 
vs. Yoshinobu Kanemaru, Minoru Suzuki, Zack Sabre Jr. & Taichi

NEW JAPAN CUP 2020 1ST ROUND (NO TIME LIMIT)
Tomoaki Honma vs. Hiromu Takahashi

NEW JAPAN CUP 2020 1ST ROUND (NO TIME LIMIT)
Tomohiro Ishii vs. El Desperado
File more details

General
Complete name : NJPW.2020.06.16.New.Japan.Cup.Day.1.ENG.720p.WEB-DL.x264-Lopatar.mp4
Format : MPEG-4
Format profile : Base Media
File size : 1.69 GiB
Duration : 2 h 0 min
Overall bit rate : 2 011 kb/s
Writing application : Lavf58.29.100

Video
ID : japan cup
Format : AVC
Codec ID : japan cup
Codec ID/Info : Advanced Video Coding
Duration : 2 h 0 min
Bit rate : 1 904 kb/s
Width : 1 280 pixels
Height : 720 pixels
Display aspect ratio : 16:9
Frame rate mode : Constant
Frame rate : 30.000 FPS
Color space : YUV
Chroma subsampling : 4:2:0
Bit depth : 8 bits
Scan type : Progressive
Bits/(Pixel*Frame) : 0.069
Stream size : 1.60 GiB (95%)
Codec configuration box : japan cup

Audio
ID : japan cup
Format : AAC LC
Codec ID : mp4a-40-2
Duration : 2 h 0 min
Bit rate mode : Constant
Bit rate : 93.6 kb/s
Channel(s) : 2 channels
Channel layout : L R
Sampling rate : 44.1 kHz
Frame rate : 43.066 FPS (1024 SPF)
Compression mode : Lossy
Stream size : 80.5 MiB (5%)
Default : japan cup
Alternate group : japan cup

Single download links

Rapidgator // Nitroflare // Uploadgig // RockFile

References

Homepage Premium Site

 289 total views,  1 views today

NJPW New Japan Cup 2020 Day 1 English

WH : Source OF Wrestling Releases / Home OF WH Releases

Buy Premium or Renew From WH Links to Keep it Alive

About PH.M.H

[Wrestling Best Uploader]

View all posts by PH.M.H →

Leave a Reply

Your email address will not be published. Required fields are marked *