NJPW Kizuna Road 2019 06 17 720p Samurai TV

NJPW Kizuna Road 2019 06 17 720p Samurai TV

Download NJPW Kizuna Road 06/17/19 720p Samurai TV Version

NJPW Kizuna Road 2019 06 17 720p Samurai TV

NJPW Kizuna Road 2019 06 17 720p Samurai TV

NJPW Kizuna Road 2019 
(6/17/19) 
Tokyo, Japan 
Korakuen Hall 
Fans 





Yota Tsuji vs. Yuya Uemura 

Yuji Nagata & Shota Umino vs. Tomoaki Honma & Toa Henare 

Kota Ibushi, Hiroyoshi Tenzan, Satoshi Kojima, Jushin Thunder Liger & Tiger Mask IV vs. Los Ingobernables de Japon (Tetsuya Naito, EVIL, SANADA, Shingo Takagi & BUSHI) 

Hiroshi Tanahashi, Juice Robinson, Mikey Nicholls & Ren Narita vs. Bullet Club (Tama Tonga, Tanga Loa, Jay White & Taiji Ishimori) 

NEVER Openweight Six Man Tag Team Championship 
Togi Makabe, Toru Yano & Ryusuke Taguchi (c) vs. Bullet Club (El Phantasmo, Chase Owens & Yujiro Takahashi) 

Elimination Ten Man Tag Team Match 
CHAOS (Kazuchika Okada, Tomohiro Ishii, YOSHI-HASHI, SHO & YOH) vs. Suzuki-gun (Minoru Suzuki, Zack Sabre Jr., Lance Archer, Taichi & Yoshinobu Kanemaru)

General
Complete name : 2019.06.17.NJPW.Kizuna.Road.2019.Tokyo.Korakuen.Hall.(Samurai.TV).mp4
Format : MPEG-4
Format profile : Base Media
Codec ID : isom (isom/iso2/avc1/mp41)
File size : 2.45 GiB
Duration : 2 h 34 min
Overall bit rate mode : Variable
Overall bit rate : 2 261 kb/s
Writing application : Lavf58.12.100

Video
ID : 1
Format : AVC
Format/Info : Advanced Video Codec
Format profile : [email protected]
Format settings : CABAC / 1 Ref Frames
Format settings, CABAC : Yes
Format settings, Reference : 1 frame
Codec ID : avc1
Codec ID/Info : Advanced Video Coding
Duration : 2 h 34 min
Bit rate mode : Variable
Bit rate : 2 059 kb/s
Maximum bit rate : 6 144 kb/s
Width : 1 280 pixels
Height : 720 pixels
Display aspect ratio : 16:9
Frame rate mode : Constant
Frame rate : 60.000 FPS
Color space : YUV
Chroma subsampling : 4:2:0
Bit depth : 8 bits
Scan type : Progressive
Bits/(Pixel*Frame) : 0.037
Stream size : 2.23 GiB (91%)
Codec configuration box : avcC

Audio
ID : 2
Format : AAC LC
Format/Info : Advanced Audio Codec Low Complexity
Codec ID : mp4a-40-2
Duration : 2 h 34 min
Bit rate mode : Constant
Bit rate : 192 kb/s
Channel(s) : 2 channels
Channel layout : L R
Sampling rate : 48.0 kHz
Frame rate : 46.875 FPS (1024 SPF)
Compression mode : Lossy
Stream size : 214 MiB (9%)
Default : Yes
Alternate group : 1

NJPW Kizuna Road 2019 06 17 720p Samurai TV
NJPW Kizuna Road 2019 06 17 720p Samurai TV
NJPW Kizuna Road 2019 06 17 720p Samurai TV

1fichier.com/?b8d9pgtp741niekfvc5b
anonfile.com/Y580Eev6n0
bayfiles.com/Qc9eEav7nb
bitster.cz/file/60589a
dl.free.fr/hskOeXene
file.bz/ecB0E3v6ne
filerio.in/zvvake1j8la2
multiup.org/download/a1005dd934c2d2115a8ec06bd570cc2e
nitroflare.com/view/9C3F7A99B80361D
rg.to/file/832f15e24fc7fbd786ce12355b1d3d57
turbobit.net/soiv4a8af2al.html

 110 total views,  1 views today

NJPW Kizuna Road 2019 06 17 720p Samurai TV

WH : Source OF Wrestling Releases / Home OF WH Releases

Buy Premium or Renew From WH Links to Keep it Alive

About PH.M.H

[Wrestling Best Uploader]

View all posts by PH.M.H →

Leave a Reply

Your email address will not be published. Required fields are marked *