NJPW 2020 06 17 New Japan Cup Day 2

NJPW 2020 06 17 New Japan Cup Day 2 540p WEB-DL x264-Lopatar

NJPW New Japan Cup Day 2
NJPW 2020 06 17 New Japan Cup Day 2
Match Card – NJPW 2020
Description[SIZE]: 1.74 GB
[SOURCE]: NJPW World
[CONTAINER]: mp4
[RESOLUTION]: 960 x 540 @ 30 FPS
[VIDEO]: x264 @ 1823 Kbps
[AUDIO – JAPANESE]: AAC 2.0 @ 99.3 kbps
[LENGTH]: 02:09:02

NEW JAPAN CUP 2020 1ST ROUND (NO TIME LIMIT)
Gabriel Kidd vs. Taiji Ishimori

NEW JAPAN CUP 2020 1ST ROUND (NO TIME LIMIT)
Yuya Uemura vs. Yoshinobu Kanemaru

TAG TEAM MATCH (30 MINUTES TIME LIMIT)
SHO, YOH, YOSHI-HASHI & Hirooki Goto

vs. BUSHI, Shingo Takagi, SANADA & EVIL

NEW JAPAN CUP 2020 1ST ROUND (NO TIME LIMIT)
Yuji Nagata vs. Minoru Suzuki

NEW JAPAN CUP 2020 1ST ROUND (NO TIME LIMIT)
Kazuchika Okada vs. Gedo
Screen Shots
NJPW 2020 06 17 New Japan Cup Day 2
File iNFormation

General
Complete name : NJPW.2020.06.17.New.Japan.Cup.Day.2.540p.WEB-DL.x264-Lopatar.mp4
Format : MPEG-4
Format profile : Base Media
File size : 1.74 GiB
Duration : 2 h 9 min
Overall bit rate : 1 933 kb/s
Writing application : Lavf58.29.100

Video
ID : NJPW 2020
Format : AVC
Codec ID : avc1
Duration : 2 h 9 min
Bit rate : 1 823 kb/s
Width : 960 pixels
Height : 540 pixels
Display aspect ratio : 16:9
Frame rate mode : Variable
Frame rate : 30.000 FPS
Minimum frame rate : 29.412 FPS
Maximum frame rate : 30.303 FPS
Color space : YUV
Chroma subsampling : 4:2:0
Bit depth : 8 bits
Scan type : Progressive
Bits/(Pixel*Frame) : 0.117
Stream size : 1.64 GiB (94%)
Color range :NJPW 2020
Color primaries : BT.601 PAL
Transfer characteristics : BT.601
Matrix coefficients : NJPW 2020
Codec configuration box :NJPW 2020

Audio
ID : NJPW 2020
Format : AAC LC
Codec ID : NJPW 2020
Duration : 2 h 9 min
Bit rate mode : Constant
Bit rate : 99.3 kb/s
Channel(s) : 2 channels
Channel layout : L R
Sampling rate : 44.1 kHz
Frame rate : 43.066 FPS (1024 SPF)
Compression mode : Lossy
Stream size : 91.6 MiB (5%)
Default : NJPW 2020
Alternate group : NJPW 2020

Single download Links

Rapidgator // NitroFlare // Uploadgig // ddl // RockFile

references

Home PagesPremium Site

 349 total views,  1 views today

NJPW 2020 06 17 New Japan Cup Day 2

WH : Source OF Wrestling Releases / Home OF WH Releases

Buy Premium or Renew From WH Links to Keep it Alive

About PH.M.H

[Wrestling Best Uploader]

View all posts by PH.M.H →

Leave a Reply

Your email address will not be published. Required fields are marked *