NJPW 2020 06 16 New Japan Cup Day 1

NJPW 2020 06 16 New Japan Cup Day 1 540p WEB-DL x264-Lopatar

download NJPW New Japan Cup Day 1
NJPW 2020 06 16 New Japan Cup Day 1
Match Card
Description[SIZE]: 1.74 GB
[SOURCE]: NJPW World
[CONTAINER]: mp4
[RESOLUTION]: 960 x 540 @ 30 FPS
[VIDEO]: x264 @ 1824 Kbps
[AUDIO – JAPANESE]: AAC 2.0 @ 99.1 kbps
[LENGTH]: 02:09:02

NEW JAPAN CUP 2020 1ST ROUND (NO TIME LIMIT)
Togi Makabe vs. Yota Tsuji

NEW JAPAN CUP 2020 1ST ROUND (NO TIME LIMIT)
Toru Yano vs. Jado

TAG TEAM MATCH (30 MINUTES TIME LIMIT)
Yuya Uemura, Yuji Nagata, Kota Ibushi & Hiroshi Tanahashi
vs. Yoshinobu Kanemaru, Minoru Suzuki, Zack Sabre Jr. & Taichi

NEW JAPAN CUP 2020 1ST ROUND (NO TIME LIMIT)
Tomoaki Honma vs. Hiromu Takahashi

NEW JAPAN CUP 2020 1ST ROUND (NO TIME LIMIT)
Tomohiro Ishii vs. El Desperado
File information

General
Complete name : NJPW.2020.06.16.New.Japan.Cup.Day.1.540p.WEB-DL.x264-Lopatar.mp4
Format : MPEG-4
Format profile : Base Media
Codec ID : isom (isom/iso2/avc1/mp41)
File size : 1.74 GiB
Duration : 2 h 9 min
Overall bit rate : 1 934 kb/s
Writing application : Lavf58.29.100

Video
Format : AVC
Duration : 2 h 9 min
Bit rate : 1 824 kb/s
Width : 960 pixels
Height : 540 pixels
Display aspect ratio : 16:9
Frame rate mode : Variable
Frame rate : 30.000 FPS
Minimum frame rate : 29.412 FPS
Maximum frame rate : 30.303 FPS
Color space : YUV
Chroma subsampling : 4:2:0
Bit depth : 8 bits – 2020 06 16
Scan type : Progressive
Bits/(Pixel*Frame) : 0.117 – NJPW 2020
Stream size : 1.64 GiB (94%)
Color range : Limited
Color primaries : BT.601 PAL
Transfer characteristics : BT.601
Matrix coefficients : BT.470 System B/G
Codec configuration box : avcC – NJpw 2020

Audio
ID : NJpw 2020
Format : AAC LC
Codec ID : 2020 06 16
Duration : 2 h 9 min
Bit rate mode : Constant
Bit rate : 99.1 kb/s
Channel(s) : 2 channels
Channel layout : L R
Sampling rate : 44.1 kHz
Frame rate : 43.066 FPS (1024 SPF)
Compression mode : Lossy
Stream size : 91.5 MiB (5%)
Default : 2020 06 16
Alternate group : NJPW 2020

Single download links

Rapidgator // Nitroflare // uploadGiG // Rockfile // ddl

references

Links : Home Page IMDBPremium sitecover

 402 total views,  1 views today

NJPW 2020 06 16 New Japan Cup Day 1

WH : Source OF Wrestling Releases / Home OF WH Releases

Buy Premium or Renew From WH Links to Keep it Alive

About PH.M.H

[Wrestling Best Uploader]

View all posts by PH.M.H →

Leave a Reply

Your email address will not be published. Required fields are marked *