NJPW 2020 02 06 Road to the New Beginning Day 7

Spread the love

NJPW 2020 02 06 Road to the New Beginning Day 7

NJPW 2020 02 06 Road to the New Beginning Day 7

General
Complete name : NJPW.Road.to.the.NEW.BEGINNING.2020.2.6.WEB.x264-WH.mp4
Format : MPEG-4
Format profile : Base Media
Codec ID : isom (isom/iso2/avc1/mp41)
File size : 2.10 GiB
Duration : 2 h 34 min
Overall bit rate mode : Variable
Overall bit rate : 1 942 kb/s
Writing application : Lavf53.24.2

Video
Format settings, CABAC : Yes
Format settings, Reference : 4 frames
Codec ID : avc1
Duration : 2 h 34 min
Bit rate : 1 831 kb/s
Width : 960 pixels
Height : 540 pixels
Display aspect ratio : 16:9
Frame rate mode : Variable
Frame rate : 30.000 FPS
Minimum frame rate : 29.412 FPS
Maximum frame rate : 30.303 FPS
Color space : YUV
Chroma subsampling : 4:2:0
Bit depth : 8 bits
Scan type : Progressive
Bits/(Pixel*Frame) : 0.118
Stream size : 1.98 GiB (94%)
Color range : Limited
Color primaries : BT.601 PAL
Transfer characteristics : BT.601
Matrix coefficients : BT.470 System B/G
Codec configuration box : avcC

Audio
ID : 2
Format : AAC LC
Codec ID : mp4a-40-2
Duration : 2 h 34 min
Bit rate mode : Variable
Bit rate : 100 kb/s
Maximum bit rate : 112 kb/s
Channel(s) : 2 channels
Channel layout : L R
Sampling rate : 44.1 kHz
Frame rate : 43.066 FPS (1024 SPF)
Compression mode : Lossy
Stream size : 111 MiB (5%)
Default : Yes
Alternate group : 1

NJPW 2020 02 06 Road to the New Beginning Day 7

Buy Premium or Extend From here to Support WH

NJPW 2020 02 06 Road to the New Beginning Day 7

About PH.M.H

[Wrestling Best Uploader]

View all posts by PH.M.H

2 Comments on “NJPW 2020 02 06 Road to the New Beginning Day 7”



  1. Watch NJPW Road to the New Beginning Day 7 – 2/6/20

    NJPW 2020 02 06 Road to the New Beginning Day 7

    Watch NJPW Road to the New Beginning Day 7 – 2/6/20

    English Version

    Japanese Version

Leave a Reply

Your email address will not be published. Required fields are marked *