NJPW 2019 06 29 Southern Showdown MULTi 1080p

NJPW 2019 06 29 Southern Showdown MULTi 1080p WEB h264-HEEL 

Download NJPW 2019 06 29 Southern Showdown 1080p full event free links

NJPW 2019 06 29 Southern Showdown MULTi 1080p

Download NJPW Southern Showdown 2019

HEEL note: end of Phantasmo vs Romero is missing due to NJPW/FITE screw up. 

Title: NJPW.2019.06.29.Southern.Showdown.MULTi.1080p.WEB.h264-HEEL 
Released: 2019.06.29 
Source: WEB 
Resolution: 1920 x 1080 @ 30 FPS 
Video: H.264 @ 3974 kbps 
Size: 5.91 GB 
Runtime: 3h 20mn 

Audio: 
English: AAC @ 132 kbps 
Japanese: AAC @ 128 kbps 

General
Complete name : NJPW.2019.06.29.Southern.Showdown.MULTi.1080p.WEB.h264-HEEL
Format : MPEG-4
Format profile : Base Media
Codec ID : isom (isom)
File size : 5.91 GiB
Duration : 3 h 19 min
Overall bit rate mode : Variable
Overall bit rate : 4 239 kb/s
Encoded date : UTC 2019-06-29 15:32:03
Tagged date : UTC 2019-06-29 15:32:03

Video
ID : 1
Format : AVC
Format/Info : Advanced Video Codec
Format profile : [email protected]
Format settings : CABAC / 4 Ref Frames
Format settings, CABAC : Yes
Format settings, Reference : 4 frames
Codec ID : avc1
Codec ID/Info : Advanced Video Coding
Duration : 3 h 19 min
Source duration : 3 h 19 min
Bit rate : 3 974 kb/s
Maximum bit rate : 26.9 Mb/s
Width : 1 920 pixels
Height : 1 080 pixels
Display aspect ratio : 16:9
Frame rate mode : Variable
Frame rate : 30.000 FPS
Minimum frame rate : 25.000 FPS
Maximum frame rate : 30.303 FPS
Color space : YUV
Chroma subsampling : 4:2:0
Bit depth : 8 bits
Scan type : Progressive
Bits/(Pixel*Frame) : 0.064
Stream size : 5.54 GiB (94%)
Source stream size : 5.54 GiB (94%)
Tagged date : UTC 2019-06-29 15:42:01
Codec configuration box : avcC

Audio #1
ID : 2
Format : AAC LC
Format/Info : Advanced Audio Codec Low Complexity
Codec ID : mp4a-40-2
Duration : 3 h 19 min
Source duration : 3 h 19 min
Bit rate mode : Variable
Bit rate : 132 kb/s
Maximum bit rate : 162 kb/s
Channel(s) : 2 channels
Channel layout : L R
Sampling rate : 48.0 kHz
Frame rate : 46.875 FPS (1024 SPF)
Compression mode : Lossy
Stream size : 185 MiB (3%)
Source stream size : 185 MiB (3%)
Default : Yes
Alternate group : 1
Tagged date : UTC 2019-06-29 15:42:01

Audio #2
ID : 3
Format : AAC LC
Format/Info : Advanced Audio Codec Low Complexity
Codec ID : mp4a-40-2
Duration : 3 h 19 min
Bit rate mode : Variable
Bit rate : 128 kb/s
Maximum bit rate : 143 kb/s
Channel(s) : 2 channels
Channel layout : L R
Sampling rate : 48.0 kHz
Frame rate : 46.875 FPS (1024 SPF)
Compression mode : Lossy
Stream size : 182 MiB (3%)
Encoded date : UTC 2019-06-29 15:41:20
Tagged date : UTC 2019-06-29 15:42:01

NJPW 2019 06 29 Southern Showdown MULTi 1080p

ONE LINK DOWNLOAD

filetransfer

filetransfer.io/data-package/itUHfHtl

1fichier

1fichier.com/?9pjwptffov441ok7f9q6

anonfile

anonfile.com/R5y4iexend

dl.free.fr
dl.free.fr/tn3xvfbBX

file.bz

file.bz/h9v9iax7na

turbobit
turbobit.net/r3nwqgmfozlp.html

uptobox
uptobox.com/z696gbi0hwoj

multiup

multiup.org/download/1ed3e0dc8dd3815e327c5cff2c2618f5

verystream

verystream.com/stream/M7dGyFsLmRb

2 GB [4 PARTS] // INTERCHANGEABLE LINKS

filefactory

www.filefactory.com/file/4e7utt2h5din
www.filefactory.com/file/6wadca17hjt5
www.filefactory.com/file/73nmqjf62x55
www.filefactory.com/file/20x1tkfe2l6n

1fichier

1fichier.com/?wxkaehngbowds57408rh
1fichier.com/?r55jxfrdtwowgp6y56ng
1fichier.com/?nckrvvfdzoaz7sirm5yu
1fichier.com/?c6sgcfk47wcnmwq6xbx6

dl.free.fr

dl.free.fr/k94bXAIg7
dl.free.fr/fUTsOjaGs
dl.free.fr/gRpUIT5Jb
dl.free.fr/cA25qixEd

anonfile

anonfile.com/y9wbidxdnc
anonfile.com/G4yai1x8nd
anonfile.com/U9x0iaxan1
anonfile.com/s6vfi7xbnf

turbobit
turbobit.net/3exmvnp1cs9g.html
turbobit.net/fk44d1r38opq.html
turbobit.net/kcf6me48t8aw.html
turbobit.net/iey5s5el669w.html

uptobox
uptobox.com/sr5mz7zs8tuq
uptobox.com/wyoooehjr4in
uptobox.com/gtbvaglpjwze
uptobox.com/kwdlkrkf1w6x

multiup

multiup.org/download/eb0f3f63da80c448aaa5ee5d3bffef2d
multiup.org/download/e05dd90accb3a04f1e0dc7921ee30c18
multiup.org/download/8d05b8d25212228b5f654e0b0a9495e1
multiup.org/download/1a7c6d7f1e6b34c717fa8032d739b628

 95 total views,  1 views today

NJPW 2019 06 29 Southern Showdown MULTi 1080p

WH : Source OF Wrestling Releases / Home OF WH Releases

Buy Premium or Renew From WH Links to Keep it Alive

About PH.M.H

[Wrestling Best Uploader]

View all posts by PH.M.H →

Leave a Reply

Your email address will not be published. Required fields are marked *