FREEDOMS New Generation Is Here 2020

FREEDOMS New Generation Is Here 2020

FREEDOMS 2020 06 10 New Generation Is Here 2020
FREEDOMS New Generation Is Here 2020
Match Card / Freedoms
Description
Date: 2020.06.10
Location: Tokyo, Japan
Arena: Shin-Kiba 1st Ring

Card:

Six Man Tag Team Match
Brahman Kei, Brahman Shu & Karate Brahman
vs. Chikara, Kenji Fukimoto & Minoru Fujita

Singles Match
GENTARO vs. Takahiro Katori

Tag Team Match
Kamui & Mammoth Sasaki
vs. Tomoya Hirata & Yuya Susumu

Fluorescent Light Tubes Death Match
Takashi Sasaki, Toru Sugiura & Violento Jack
vs. Daisuke Masaoka, Jun Kasai & Masashi Takeda

File Info: Freedoms

Size: 2.13 GiB
Duration: 2 hr 24 min
Resolution: 800 x 450
Video: h264 | 30.00 fps | 1864 kb/s
Audio: AAC LC | 230 kb/s
Screen Shot
FREEDOMS New Generation Is Here 2020
File iNFormation

General
Format : MPEG-4
Format profile : Base Media
Codec ID : isom (isom/iso2/avc1/mp41)
File size : 2.13 GiB
Duration : 2 h 24 min
Overall bit rate mode : Variable
Overall bit rate : 2 107 kb/s

Video
ID : Generation
Format : AVC
Duration : 2 h 24 min
Bit rate : 1 864 kb/s
Width : 792 pixels
Original width : 800 pixels
Height : 464 pixels
Original height : 450 pixels
Display aspect ratio : 16:9
Frame rate mode : Variable
Frame rate : 30.000 FPS
Minimum frame rate : 15.152 FPS
Maximum frame rate : 30.303 FPS
Color space : Freedoms
Chroma subsampling : 4:2:0
Bit depth : 8 bits
Scan type : Progressive
Bits/(Pixel*Frame) : 0.169
Stream size : 1.89 GiB (88%)
Color range : Limited
Color primaries : Generation
Transfer characteristics : BT.709
Matrix coefficients : BT.709
mdhd_Duration : 8692933
Codec configuration box : avcC

Audio
ID : Generation
Format : AAC LC
Codec ID : mp4a-40-2
Duration : 2 h 24 min
Bit rate mode : Variable
Bit rate : 231 kb/s
Maximum bit rate : 494 kb/s
Channel(s) : 2 channels
Channel layout : L R
Sampling rate : 48.0 kHz
Frame rate : 46.875 FPS (1024 SPF)
Compression mode : Lossy
Stream size : 239 MiB (11%)

Single download links

Rapidgator // NitroFlare // UploadGiG // RockFile

References

Home PagePremium Site

 320 total views,  1 views today

FREEDOMS New Generation Is Here 2020

WH : Source OF Wrestling Releases / Home OF WH Releases

Buy Premium or Renew From WH Links to Keep it Alive

About PH.M.H

[Wrestling Best Uploader]

View all posts by PH.M.H →

Leave a Reply

Your email address will not be published. Required fields are marked *