Dragon Gate infinity 2020 01 15 Korakuen Hall 720p

Spread the love

Dragon Gate infinity 2020 01 15 Korakuen Hall 720p TVRIP x264-WH

Dragon Gate infinity 2020 01 15 Korakuen Hall 720p

General
Complete name : DRAGON.GATE.infinity.2020.01.15.Korakuen.Hall.720p TVRIP.x264-WH.mp4
Format : MPEG-4
Format profile : Base Media
Codec ID : isom
File size : 4.17 GiB
Duration : 3h 9mn
Overall bit rate : 3 150 Kbps
Writing application : Lavf56.15.102

Video
Format settings, ReFrames : 2 frames
Codec ID : avc1
Duration : 3h 9mn
Bit rate mode : Variable
Bit rate : 3 000 Kbps
Width : 1 280 pixels
Height : 720 pixels
Display aspect ratio : 16:9
Frame rate mode : Constant
Frame rate : 29.970 fps
Color space : YUV
Chroma subsampling : 4:2:0
Bit depth : 8 bits
Scan type : Progressive
Bits/(Pixel*Frame) : 0.109
Stream size : 3.96 GiB (95%)
Writing library : x264 core 142
Language : English

Audio
ID : 2
Format : AAC
Codec ID : 40
Duration : 3h 9mn
Bit rate mode : Variable
Bit rate : 152 Kbps
Maximum bit rate : 192 Kbps
Channel(s) : 2 channels
Channel positions : Front: L R
Sampling rate : 44.1 KHz
Compression mode : Lossy
Stream size : 206 MiB (5%)
Language : English


fileup.cc/gia5j94infnj

mixloads.com/dvda3kk0hlia

rapidgator.net/file/d823b55cf6d4c4a8c0ec9827d65b302d

ul.to/kccr6k4y

uploadgig.com/file/download/730150f226d59a26

nitroflare.com/view/65F35EB346E9A2F

One Comment on “Dragon Gate infinity 2020 01 15 Korakuen Hall 720p”

Leave a Reply

Your email address will not be published. Required fields are marked *