Dragon Gate King Of Gate 2019 Finale 720p / 9th JUNE 2019

Dragon Gate 2019 06 09 King Of Gate 2019 Finale 720p WEB h264-H33B

Dragon Gate King Of Gate 2019 Finale 720p / 9th JUNE 2019

Dragon Gate 2019 06 09 King Of Gate 2019 Finale 720p WEB h264-H33B

TITLE:  Dragon.Gate.2019.06.09.King.Of.Gate.2019.Finale.720p.WEB.h264-H33B


CARD:   
Eight Man Tag Team Match
Don Fujii, Drastik Boy, Jimmy & Keisuke Okuda vs. Natural Vibes (Genki Horiguchi & Kzy), Mondai Ryu & Shachihoko BOY

Tag Team Match
Masaaki Mochizuki & Ryo Saito vs. MaxiMuM (Dragon Kid & Masato Yoshino)

Eight Man Tag Team Match
Ben-K & Tribe Vanguard (Flamita, Kagetora & Yosuke Santa Maria) vs. R.E.D. (Big R Shimizu, Eita, KAZMA SAKAMOTO & PAC)

Singles Match
Shun Skywalker vs. Takashi Yoshida

Open The Brave Gate Title Match
Susumu Yokosuka (c) vs. Jason Lee

Open The Twin Gate Title Match
Tribe Vanguard (KAI & YAMATO) (c) vs. MaxiMuM (Kaito Ishida & Naruki Doi)


DATE:  2019.06.09
LOCATION:  Fukuoka, Kyushu, Japan
ARENA:  Acros Fukuoka Event Hall
RUNTIME:  2h 39m 26s
VIDEO:  h264 | 2000 kbps | 1280×720 px | 30 fps
AUDIO:  AAC | 128 kbps
LANGUAGE:  Japanese (no commentary)
CONTAINER:  MP4

General
Complete name : Dragon.Gate.2019.06.09.King.Of.Gate.2019.Finale.720p.WEB.h264-H33B.mp4
Format : MPEG-4
Format profile : Base Media
Codec ID : isom (isom/iso2/avc1/mp41)
File size : 2.38 GiB
Duration : 2 h 39 min
Overall bit rate : 2 135 kb/s
Writing application : Lavf56.30.100

Video
ID : 1
Format : AVC
Format/Info : Advanced Video Codec
Format profile : [email protected]
Format settings : CABAC / 3 Ref Frames
Format settings, CABAC : Yes
Format settings, Reference : 3 frames
Format settings, GOP : M=1, N=30
Codec ID : avc1
Codec ID/Info : Advanced Video Coding
Duration : 2 h 39 min
Bit rate : 2 000 kb/s
Width : 1 280 pixels
Height : 720 pixels
Display aspect ratio : 16:9
Frame rate mode : Constant
Frame rate : 30.000 FPS
Color space : YUV
Chroma subsampling : 4:2:0
Bit depth : 8 bits
Scan type : Progressive
Bits/(Pixel*Frame) : 0.072
Stream size : 2.23 GiB (94%)
Writing library : Zencoder Video Encoding System
Codec configuration box : avcC

Audio
ID : 2
Format : AAC LC
Format/Info : Advanced Audio Codec Low Complexity
Codec ID : mp4a-40-2
Duration : 2 h 39 min
Bit rate mode : Constant
Bit rate : 128 kb/s
Channel(s) : 2 channels
Channel layout : L R
Sampling rate : 48.0 kHz
Frame rate : 46.875 FPS (1024 SPF)
Compression mode : Lossy
Stream size : 146 MiB (6%)
Default : Yes
Alternate group : 1

Dragon Gate King Of Gate 2019 Finale 720p / 9th JUNE 2019
Dragon Gate King Of Gate 2019 Finale 720p / 9th JUNE 2019
Dragon Gate King Of Gate 2019 Finale 720p / 9th JUNE 2019
Dragon Gate King Of Gate 2019 Finale 720p / 9th JUNE 2019

1fichier.com/?udp2uu1w0mnj3j29sytp
anonfile.com/c6beE3u0n8
bayfiles.com/u6bdE7u9n6
bitster.cz/file/7f17d8
dl.free.fr/jgYfbWG1G
file.bz/lfb6Ebu6n1
filerio.in/2bn9d40u19zd
multiup.org/download/ffd0d01845f5c859c793ddf2b3399c4c
nitroflare.com/view/F6B46CEEB4B2900
openload.co/f/OJ7f-n4gmbw
rg.to/file/250115ccd65537ae5a2b99c84393cf5d
turbobit.net/nhb7o5a81adc.html

 69 total views,  1 views today

Dragon Gate King Of Gate 2019 Finale 720p / 9th JUNE 2019

WH : Source OF Wrestling Releases / Home OF WH Releases

Buy Premium or Renew From WH Links to Keep it Alive

About PH.M.H

[Wrestling Best Uploader]

View all posts by PH.M.H →

Leave a Reply

Your email address will not be published. Required fields are marked *