Dragon Gate King Of Gate 2019 Day 9 720p / 26th MAY 2019

Dragon Gate 2019 05 26 King Of Gate 2019 Day 9 720p WEB h264-H33B

Dragon Gate King Of Gate 2019 Day 9 720p / 26th MAY 2019

Dragon Gate 2019 05 26 King Of Gate 2019 Day 9 720p WEB h264-H33B

TITLE:  Dragon.Gate.2019.05.26.King.Of.Gate.2019.Day.9.720p.WEB.h264-H33B


CARD:   
Tag Team Match
Ben-K & Masaaki Mochizuki vs. MaxiMuM (Dragon Kid & Jason Lee)

Six Man Tag Team Match
Natural Vibes (Punch Tominaga & Susumu Yokosuka) & Super Shisa vs. Strong Machine F, Strong Machine G & Strong Machine J

Singles Match
Eita vs. Kaito Ishida

Tag Team Match
DoiYoshi (Masato Yoshino & Naruki Doi) vs. R.E.D. (Big R Shimizu & Yasushi Kanda)

Kig Of Gate 2019 Block D Match
KAI vs. Shun Skywalker

Singles Match
BxB Hulk vs. Kota Minoura

King Of Gate 2019 Block A Match
Kzy vs. Ryo Saito

King Of Gate 2019 Block C Match
Takashi Yoshida vs. YAMATO


DATE:  2019.05.26
LOCATION:  Sapporo, Hokkaido, Japan
ARENA:  Susukino Mars Gym
RUNTIME:  2h 49m 52s
VIDEO:  h264 | 2002 kbps | 1280×720 px | 30 fps
AUDIO:  AAC | 128 kbps
LANGUAGE:  Japanese (no commentary)
CONTAINER:  MP4

General
Complete name : Dragon.Gate.2019.05.26.King.Of.Gate.2019.Day.9.720p.WEB.h264-H33B.mp4
Format : MPEG-4
Format profile : Base Media
Codec ID : isom (isom/iso2/avc1/mp41)
File size : 2.53 GiB
Duration : 2 h 49 min
Overall bit rate : 2 136 kb/s
Writing application : Lavf56.30.100

Video
ID : 1
Format : AVC
Format/Info : Advanced Video Codec
Format profile : [email protected]
Format settings : CABAC / 3 Ref Frames
Format settings, CABAC : Yes
Format settings, Reference : 3 frames
Format settings, GOP : M=1, N=30
Codec ID : avc1
Codec ID/Info : Advanced Video Coding
Duration : 2 h 49 min
Bit rate : 2 002 kb/s
Width : 1 280 pixels
Height : 720 pixels
Display aspect ratio : 16:9
Frame rate mode : Constant
Frame rate : 30.000 FPS
Color space : YUV
Chroma subsampling : 4:2:0
Bit depth : 8 bits
Scan type : Progressive
Bits/(Pixel*Frame) : 0.072
Stream size : 2.37 GiB (94%)
Writing library : Zencoder Video Encoding System
Codec configuration box : avcC

Audio
ID : 2
Format : AAC LC
Format/Info : Advanced Audio Codec Low Complexity
Codec ID : mp4a-40-2
Duration : 2 h 49 min
Bit rate mode : Constant
Bit rate : 128 kb/s
Channel(s) : 2 channels
Channel layout : L R
Sampling rate : 48.0 kHz
Frame rate : 46.875 FPS (1024 SPF)
Compression mode : Lossy
Stream size : 156 MiB (6%)
Default : Yes
Alternate group : 1

Dragon Gate King Of Gate 2019 Day 9 720p / 26th MAY 2019

1fichier.com/?a2v3w4h9t4k4z00smqqs
anonfile.com/9c3bD0u9na
bayfiles.com/O436D1u5n3
bitster.cz/file/bbcf2a
dl.free.fr/ky0dcPXQy
file.bz/E838D8ufnb
www.filefactory.com/file/64i7in9o77s5
filerio.in/8jdjuacxmnnp
multiup.org/download/8bbdbd7ddaf2893ecab6ab4258a21535
nitroflare.com/view/08F94E221854EAD
openload.co/f/7WCZAmjNxTo
rg.to/file/d0b178ad2f3afbcbf16fb81e009c1467
turbobit.net/qpg9g3vywa1h.html
uploadgig.com/file/download/017dE4daE6096483

 45 total views,  1 views today

Dragon Gate King Of Gate 2019 Day 9 720p / 26th MAY 2019

WH : Source OF Wrestling Releases / Home OF WH Releases

Buy Premium or Renew From WH Links to Keep it Alive

About PH.M.H

[Wrestling Best Uploader]

View all posts by PH.M.H →

Leave a Reply

Your email address will not be published. Required fields are marked *