Dragon Gate King Of Gate 2019 Day 8 720p / 25th MAY 2019

Dragon Gate 2019 05 25 King Of Gate 2019 Day 8 720p WEB h264-H33B

Dragon Gate King Of Gate 2019 Day 8 720p / 25th MAY 2019

Dragon Gate 2019 05 25 King Of Gate 2019 Day 8 720p WEB h264-H33B

TITLE:  Dragon.Gate.2019.05.25.King.Of.Gate.2019.Day.8.720p.WEB.h264-H33B


CARD:   
Tag Team Match
Kzy & Masaaki Mochizuki vs. MaxiMuM (Jason Lee & Masato Yoshino)

King Of Gate 2019 Block C Match
Kaito Ishida vs. Takashi Yoshida

King Of Gate 2019 Block B Match
Susumu Yokosuka vs. Yasushi Kanda

Tag Team Match
Ben-K & Super Shisa vs. R.E.D. (Big R Shimizu & Eita)

King Of Gate 2019 Block D Match
Dragon Kid vs. Shun Skywalker

King Of Gate 2019 Block A Match
Naruki Doi vs. Ryo Saito

Six Man Tag Team Match
Strong Machine F, Strong Machine G & Strong Machine J vs. Tribe Vanguard (KAI, U-T & YAMATO)


DATE:  2019.05.25
LOCATION:  Sapporo, Hokkaido, Japan
ARENA:  Susukino Mars Gym
RUNTIME:  2h 49m 9s
VIDEO:  h264 | 2002 kbps | 1280×720 px | 30 fps
AUDIO:  AAC | 128 kbps
LANGUAGE:  Japanese (no commentary)
CONTAINER:  MP4

General
Complete name : Dragon.Gate.2019.05.25.King.Of.Gate.2019.Day.8.720p.WEB.h264-H33B.mp4
Format : MPEG-4
Format profile : Base Media
Codec ID : isom (isom/iso2/avc1/mp41)
File size : 2.52 GiB
Duration : 2 h 49 min
Overall bit rate : 2 137 kb/s
Writing application : Lavf56.30.100

Video
ID : 1
Format : AVC
Format/Info : Advanced Video Codec
Format profile : [email protected]
Format settings : CABAC / 3 Ref Frames
Format settings, CABAC : Yes
Format settings, Reference : 3 frames
Format settings, GOP : M=1, N=30
Codec ID : avc1
Codec ID/Info : Advanced Video Coding
Duration : 2 h 49 min
Bit rate : 2 002 kb/s
Width : 1 280 pixels
Height : 720 pixels
Display aspect ratio : 16:9
Frame rate mode : Constant
Frame rate : 30.000 FPS
Color space : YUV
Chroma subsampling : 4:2:0
Bit depth : 8 bits
Scan type : Progressive
Bits/(Pixel*Frame) : 0.072
Stream size : 2.36 GiB (94%)
Writing library : Zencoder Video Encoding System
Codec configuration box : avcC

Audio
ID : 2
Format : AAC LC
Format/Info : Advanced Audio Codec Low Complexity
Codec ID : mp4a-40-2
Duration : 2 h 49 min
Bit rate mode : Constant
Bit rate : 128 kb/s
Channel(s) : 2 channels
Channel layout : L R
Sampling rate : 48.0 kHz
Frame rate : 46.875 FPS (1024 SPF)
Compression mode : Lossy
Stream size : 155 MiB (6%)
Default : Yes
Alternate group : 1

Dragon Gate King Of Gate 2019 Day 8 720p / 25th MAY 2019

1fichier.com/?0y5ah3zuwjm6cnvwlke8
anonfile.com/8ar1D6ufn4
bayfiles.com/47u6D5u5n4
bitster.cz/file/332da7
dl.free.fr/kk6jRxYM7
file.bz/kaucDeu8nb
filerio.in/666jpmfh0iid
multiup.org/download/3e0c8530e056c3b643dae61a2d1234f0
nitroflare.com/view/5B42665E34D3CB1
openload.co/f/a4Dm1z_Iotw
rg.to/file/7414af61091084779ff51d494ff149b2
turbobit.net/cgo436j70464.html

 35 total views,  1 views today

Dragon Gate King Of Gate 2019 Day 8 720p / 25th MAY 2019

WH : Source OF Wrestling Releases / Home OF WH Releases

Buy Premium or Renew From WH Links to Keep it Alive

About PH.M.H

[Wrestling Best Uploader]

View all posts by PH.M.H →

Leave a Reply

Your email address will not be published. Required fields are marked *