Dragon Gate King Of Gate 2019 Day 3 720p / 12nd MAY 2019

Dragon Gate 2019 05 12 King Of Gate 2019 Day 3 720p WEB h264-H33B
Dragon Gate King Of Gate 2019 Day 3 720p / 12nd MAY 2019
Dragon Gate 2019 05 12 King Of Gate 2019 Day 3 720p WEB h264-H33B
TITLE:  Dragon.Gate.2019.05.12.King.Of.Gate.2019.Day.3.720p.WEB.h264-H33B


CARD:   
Eight Man Tag Team Match
Kagetora, Keisuke Okuda, Ryo Saito & YASSHI vs. MaxiMuM (Dragon Kid, Jason Lee & Masato Yoshino) & Mondai Ryu

Tag Team Match
MaxiMuM (Kaito Ishida & Naruki Doi) vs. Tribe Vanguard (KAI & U-T)

King Of Gate 2019 Block B Match
Susumu Yokosuka vs. Yuki Yoshioka

Six Man Tag Team Match
Ben-K, Kota Minoura & Masaaki Mochizuki vs. R.E.D. (Eita, PAC & Takashi Yoshida)

King Of Gate 2019 Block C Match
Genki Horiguchi vs. YAMATO

King Of Gate 2019 Block D Match
Big R Shimizu vs. Shun Skywalker

King Of Gate 2019 Block A Match
KAZMA SAKAMOTO vs. Kzy


DATE:  2019.05.12
LOCATION:  Kobe, Hyogo, Japan
ARENA:  Kobe Sambo Hall
RUNTIME:  2h 37m 55s
VIDEO:  h264 | 1999 kbps | 1280×720 px | 30 fps
AUDIO:  AAC | 128 kbps
LANGUAGE:  Japanese (no commentary)
CONTAINER:  MP4

General
Complete name : Dragon.Gate.2019.05.12.King.Of.Gate.2019.Day.3.720p.WEB.h264-H33B.mp4
Format : MPEG-4
Format profile : Base Media
Codec ID : isom (isom/iso2/avc1/mp41)
File size : 2.35 GiB
Duration : 2 h 37 min
Overall bit rate : 2 134 kb/s
Writing application : Lavf56.30.100

Video
ID : 1
Format : AVC
Format/Info : Advanced Video Codec
Format profile : [email protected]
Format settings : CABAC / 3 Ref Frames
Format settings, CABAC : Yes
Format settings, Reference : 3 frames
Format settings, GOP : M=1, N=30
Codec ID : avc1
Codec ID/Info : Advanced Video Coding
Duration : 2 h 37 min
Bit rate : 1 999 kb/s
Width : 1 280 pixels
Height : 720 pixels
Display aspect ratio : 16:9
Frame rate mode : Constant
Frame rate : 30.000 FPS
Color space : YUV
Chroma subsampling : 4:2:0
Bit depth : 8 bits
Scan type : Progressive
Bits/(Pixel*Frame) : 0.072
Stream size : 2.21 GiB (94%)
Writing library : Zencoder Video Encoding System
Codec configuration box : avcC

Audio
ID : 2
Format : AAC LC
Format/Info : Advanced Audio Codec Low Complexity
Codec ID : mp4a-40-2
Duration : 2 h 37 min
Bit rate mode : Constant
Bit rate : 128 kb/s
Channel(s) : 2 channels
Channel layout : L R
Sampling rate : 48.0 kHz
Frame rate : 46.875 FPS (1024 SPF)
Compression mode : Lossy
Stream size : 145 MiB (6%)
Default : Yes
Alternate group : 1

Dragon Gate King Of Gate 2019 Day 3 720p / 12nd MAY 2019
Dragon Gate King Of Gate 2019 Day 3 720p / 12nd MAY 2019
Dragon Gate King Of Gate 2019 Day 3 720p / 12nd MAY 2019
Dragon Gate King Of Gate 2019 Day 3 720p / 12nd MAY 2019

1fichier.com/?p3zgbne1kb4vt36mlp7o
anonfile.com/71V5C5u8na
bayfiles.com/37X9C2u3n8
bitster.cz/file/1594a1
dl.free.fr/kIDkH5mJz
file.bz/51VcCdubn2
filerio.in/y5s6i59g2nkx
multiup.org/download/1fafdb1f9470a17171ace699a2309827
nitroflare.com/view/F170B3E1333F87C
openload.co/f/9Rldtm6F428
rg.to/file/55d35ac0ff6b0af6e51d62e35f522ed0
turbobit.net/a0efypj9y9lb.html

 21 total views,  1 views today

Dragon Gate King Of Gate 2019 Day 3 720p / 12nd MAY 2019

WH : Source OF Wrestling Releases / Home OF WH Releases

Buy Premium or Renew From WH Links to Keep it Alive

About PH.M.H

[Wrestling Best Uploader]

View all posts by PH.M.H →

Leave a Reply

Your email address will not be published. Required fields are marked *