Dragon Gate King Of Gate 2019 Day 2 720p / 11st MAY 2019

Dragon Gate 2019 05 11 King Of Gate 2019 Day 2 720p WEB h264-H33B

Dragon Gate King Of Gate 2019 Day 2 720p / 11st MAY 2019

Dragon Gate 2019 05 11 King Of Gate 2019 Day 2 720p WEB h264-H33B

TITLE:  Dragon.Gate.2019.05.11.King.Of.Gate.2019.Day.2.720p.WEB.h264-H33B


CARD:   
Eight Man Tag Team Match
Natural Vibes (Kzy & YASSHI), K-ness & Mondai Ryu vs. Tribe Vanguard (U-T & YAMATO), Jason Lee & Keisuke Okuda

King Of Gate 2019 Block C Match
Genki Horiguchi vs. Takashi Yoshida

Six Man Tag Team Match
MaxiMuM (Dragon Kid, Kaito Ishida & Masato Yoshino) vs. Strong Machine F, Strong Machine G & Strong Machine J

Three Way Tag Team Match
Ben-K & Yuki Yoshioka vs. R.E.D. (Big R Shimizu & PAC) vs. Ryo Saito & Shun Skywalker

King Of Gate 2019 Block D Match
KAI vs. Masaaki Mochizuki

King Of Gate 2019 Block A Match
KAZMA SAKAMOTO vs. Naruki Doi

King Of Gate 2019 Block B Match
Eita vs. Susumu Yokosuka


DATE:  2019.05.11
LOCATION:  Osaka, Japan
ARENA:  EDION Arena Osaka #2
RUNTIME:  2h 47m 39s
VIDEO:  h264 | 2001 kbps | 1280×720 px | 30 fps
AUDIO:  AAC | 128 kbps
LANGUAGE:  Japanese (no commentary)
CONTAINER:  MP4

General
Complete name : Dragon.Gate.2019.05.11.King.Of.Gate.2019.Day.2.720p.WEB.h264-H33B.mp4
Format : MPEG-4
Format profile : Base Media
Codec ID : isom (isom/iso2/avc1/mp41)
File size : 2.50 GiB
Duration : 2 h 47 min
Overall bit rate : 2 136 kb/s
Writing application : Lavf56.30.100

Video
ID : 1
Format : AVC
Format/Info : Advanced Video Codec
Format profile : [email protected]
Format settings : CABAC / 3 Ref Frames
Format settings, CABAC : Yes
Format settings, Reference : 3 frames
Format settings, GOP : M=1, N=30
Codec ID : avc1
Codec ID/Info : Advanced Video Coding
Duration : 2 h 47 min
Bit rate : 2 001 kb/s
Width : 1 280 pixels
Height : 720 pixels
Display aspect ratio : 16:9
Frame rate mode : Constant
Frame rate : 30.000 FPS
Color space : YUV
Chroma subsampling : 4:2:0
Bit depth : 8 bits
Scan type : Progressive
Bits/(Pixel*Frame) : 0.072
Stream size : 2.34 GiB (94%)
Writing library : Zencoder Video Encoding System
Codec configuration box : avcC

Audio
ID : 2
Format : AAC LC
Format/Info : Advanced Audio Codec Low Complexity
Codec ID : mp4a-40-2
Duration : 2 h 47 min
Bit rate mode : Constant
Bit rate : 128 kb/s
Channel(s) : 2 channels
Channel layout : L R
Sampling rate : 48.0 kHz
Frame rate : 46.875 FPS (1024 SPF)
Compression mode : Lossy
Stream size : 153 MiB (6%)
Default : Yes
Alternate group : 1

Dragon Gate King Of Gate 2019 Day 2 720p / 11st MAY 2019
Dragon Gate King Of Gate 2019 Day 2 720p / 11st MAY 2019
Dragon Gate King Of Gate 2019 Day 2 720p / 11st MAY 2019
Dragon Gate King Of Gate 2019 Day 2 720p / 11st MAY 2019

1fichier.com/?ecgv9dea7naaxwnjdxbn
anonfile.com/V0CeC4ucn2
bayfiles.com/j9F3C5u3nd
bitster.cz/file/ad0d48
dl.free.fr/mM4gitxpD
file.bz/P8E4Cduan1
filerio.in/q110j82xn6lf
multiup.org/download/f4641b62cc07ed2121680e37dd6ba31b
nitroflare.com/view/20E4EC006C79519
openload.co/f/-z5CtuawC3g
rg.to/file/1924bcdfa37c2eb28bc99b4d72e12666
turbobit.net/pxov8pkq0hxw.html

 48 total views,  1 views today

Dragon Gate King Of Gate 2019 Day 2 720p / 11st MAY 2019

WH : Source OF Wrestling Releases / Home OF WH Releases

Buy Premium or Renew From WH Links to Keep it Alive

About PH.M.H

[Wrestling Best Uploader]

View all posts by PH.M.H →

Leave a Reply

Your email address will not be published. Required fields are marked *