Dragon Gate King Of Gate 2019 Day 17 720p / 8th JUNE 2019

Dragon Gate 2019 06 08 King Of Gate 2019 Day 17 720p WEB h264-H33B

Dragon Gate King Of Gate 2019 Day 17 720p / 8th JUNE 2019

Dragon Gate 2019 06 08 King Of Gate 2019 Day 17 720p WEB h264-H33B

TITLE:  Dragon.Gate.2019.06.08.King.Of.Gate.2019.Day.17.720p.WEB.h264-H33B

(DO NOT READ THE CARD IF YOU DON’T WANT TO KNOW THE KoG FINALISTS)

CARD:   
Singles Match
Mondai Ryu vs. Shachihoko BOY

Six Man Tag Team Match
Don Fujii, Gamma & Masaaki Mochizuki vs. Keisuke Okuda, Ryo Saito & Shun Skywalker

Tag Team Match
Drastik Boy & Jimmy vs. MaxiMuM (Kaito Ishida & Naruki Doi)

Six Man Tag Team Match
MaxiMuM (Dragon Kid, Jason Lee & Masato Yoshino) vs. Tribe Vanguard (Flamita, KAI & Yosuke Santa Maria)

Tag Team Match
R.E.D. (Big R Shimizu & PAC) vs. Tribe Vanguard (Kagetora & YAMATO)

Six Man Tag Team Match
Natural Vibes (Genki Horiguchi, Kzy & Susumu Yokosuka) vs. R.E.D. (KAZMA SAKAMOTO, Takashi Yoshida & Yasushi Kanda)

King of Gate 2019 Final Match
Ben-K vs. Eita


DATE:  2019.06.08
LOCATION:  Fukuoka, Kyushu, Japan
ARENA:  Acros Fukuoka Event Hall
RUNTIME:  2h 37m
VIDEO:  h264 | 2001 kbps | 1280×720 px | 30 fps
AUDIO:  AAC | 128 kbps
LANGUAGE:  Japanese (no commentary)
CONTAINER:  MP4

General
Complete name : Dragon.Gate.2019.06.08.King.Of.Gate.2019.Day.17.720p.WEB.h264-H33B.mp4
Format : MPEG-4
Format profile : Base Media
Codec ID : isom (isom/iso2/avc1/mp41)
File size : 2.34 GiB
Duration : 2 h 37 min
Overall bit rate : 2 136 kb/s
Writing application : Lavf56.30.100

Video
ID : 1
Format : AVC
Format/Info : Advanced Video Codec
Format profile : [email protected]
Format settings : CABAC / 3 Ref Frames
Format settings, CABAC : Yes
Format settings, Reference : 3 frames
Format settings, GOP : M=1, N=30
Codec ID : avc1
Codec ID/Info : Advanced Video Coding
Duration : 2 h 37 min
Bit rate : 2 001 kb/s
Width : 1 280 pixels
Height : 720 pixels
Display aspect ratio : 16:9
Frame rate mode : Constant
Frame rate : 30.000 FPS
Color space : YUV
Chroma subsampling : 4:2:0
Bit depth : 8 bits
Scan type : Progressive
Bits/(Pixel*Frame) : 0.072
Stream size : 2.19 GiB (94%)
Writing library : Zencoder Video Encoding System
Codec configuration box : avcC

Audio
ID : 2
Format : AAC LC
Format/Info : Advanced Audio Codec Low Complexity
Codec ID : mp4a-40-2
Duration : 2 h 37 min
Bit rate mode : Constant
Bit rate : 128 kb/s
Channel(s) : 2 channels
Channel layout : L R
Sampling rate : 48.0 kHz
Frame rate : 46.875 FPS (1024 SPF)
Compression mode : Lossy
Stream size : 144 MiB (6%)
Default : Yes
Alternate group : 1

Dragon Gate King Of Gate 2019 Day 17 720p / 8th JUNE 2019
Dragon Gate King Of Gate 2019 Day 17 720p / 8th JUNE 2019
Dragon Gate King Of Gate 2019 Day 17 720p / 8th JUNE 2019
Dragon Gate King Of Gate 2019 Day 17 720p / 8th JUNE 2019

1fichier.com/?583g1pzb86c37xm4ol66
anonfile.com/u6Q3D7u8n8
bayfiles.com/45Q0D5u6na
bitster.cz/file/0e47d0
dl.free.fr/fCyEMxviN
file.bz/t3Q2D7uan9
filerio.in/160wfg9rda1o
multiup.org/download/1c670e649dd8c192a054eed6b3e07b57
nitroflare.com/view/9362C8A289A8C43
openload.co/f/0Mp7UAXKPyA
rg.to/file/f0477e85654e035d1d0132bbe9e16340
turbobit.net/vlew3t9e6x8m.html

 73 total views,  1 views today

Dragon Gate King Of Gate 2019 Day 17 720p / 8th JUNE 2019

WH : Source OF Wrestling Releases / Home OF WH Releases

Buy Premium or Renew From WH Links to Keep it Alive

About PH.M.H

[Wrestling Best Uploader]

View all posts by PH.M.H →

Leave a Reply

Your email address will not be published. Required fields are marked *