Dragon Gate King of Gate 2019 Day 16 Semi-Finals 720p

Dragon Gate King of Gate 2019 – Day 16 (Semi-Finals) – 06.06.19 in Korakuen Hall

Dragon Gate King of Gate 2019 Day 16 Semi-Finals 720p

Dragon Gate 
6/6/2019 
Tokyo, Japan 
Korakuen Hall 
Attendance: 1638 

1. Six Man Tag Team Match 
Dragon Dia, Dramatic Boy, K-ness & Mondai Ryu vs. Hiroshi Yamato, Jimmy, Punch Tominaga & YASSHI 
2. King of Gate 2019 Block A Playoff Match 
KAZMA SAKAMOTO vs. Kzy 
3. Six Man Tag Team Match 
Hyo Watanabe, Kaito Ishida & Kota Minoura vs. Strong Machine F, Strong Machine G & Strong Machine J 
4. Tag Team Match 
Masaaki Mochizuki & Yuki Yoshioka vs. Keisuke Okuda & Shun Skywalker 
5. Eight Man Tag Team Match 
Genki Horiguchi, Kenichiro Arai, Ryo Saito & Susumu Yokosuka vs. MaxiMuM (Dragon Kid, Jason Lee, Masato Yoshino & Naruki Doi) 
6. Eight Man Tag Team Match 
R.E.D. (Big R Shimizu, PAC, Takashi Yoshida & Yasushi Kanda) vs. Tribe Vanguard (Flamita, Kagetora, YAMATO & Yosuke Santa Maria) 
7. King of Gate 2019 Semi Final Match 
8. King of Gate 2019 Semi Final Match 

Possible semi-finalists: Ben-K, Eita, KAI and the winner of Kzy/KAZMA. Spoilerific
Very good show main evented by two MOTYCs. Undercard also worth your time imo, not only because of the playoff but also Mochizuki/Yoshioka vs Okuda/Skywalker and Tribe Vanguard vs RED.

General
Complete name : 2019.06.06 DG King of Gate 2019 Day 16.mp4
Format : MPEG-4
Format profile : Base Media / Version 2
Codec ID : mp42 (isom/mp42)
File size : 2.81 GiB
Duration : 3 h 27 min
Overall bit rate mode : Variable
Overall bit rate : 1 941 kb/s
Encoded date : UTC 2019-06-06 21:38:28
Tagged date : UTC 2019-06-06 21:38:28
gsst : 0
gstd : 12450725

Video
ID : 1
Format : AVC
Format/Info : Advanced Video Codec
Format profile : [email protected]
Format settings : CABAC / 3 Ref Frames
Format settings, CABAC : Yes
Format settings, Reference : 3 frames
Codec ID : avc1
Codec ID/Info : Advanced Video Coding
Duration : 3 h 27 min
Bit rate : 1 810 kb/s
Width : 1 280 pixels
Height : 720 pixels
Display aspect ratio : 16:9
Frame rate mode : Constant
Frame rate : 30.000 FPS
Color space : YUV
Chroma subsampling : 4:2:0
Bit depth : 8 bits
Scan type : Progressive
Bits/(Pixel*Frame) : 0.065
Stream size : 2.62 GiB (93%)
Title : ISO Media file produced by Google Inc. Created on: 06/06/2019.
Encoded date : UTC 2019-06-06 21:38:28
Tagged date : UTC 2019-06-06 21:38:28
Color range : Limited
Color primaries : BT.709
Transfer characteristics : BT.709
Matrix coefficients : BT.709
Codec configuration box : avcC

Audio
ID : 2
Format : AAC LC
Format/Info : Advanced Audio Codec Low Complexity
Codec ID : mp4a-40-2
Duration : 3 h 27 min
Bit rate mode : Variable
Bit rate : 128 kb/s
Channel(s) : 2 channels
Channel layout : L R
Sampling rate : 44.1 kHz
Frame rate : 43.066 FPS (1024 SPF)
Compression mode : Lossy
Stream size : 190 MiB (7%)
Title : ISO Media file produced by Google Inc. Created on: 06/06/2019.
Encoded date : UTC 2019-06-06 21:38:28
Tagged date : UTC 2019-06-06 21:38:28

Dragon Gate King of Gate 2019 Day 16 Semi-Finals 720p

HISTORICAL MARVELLOUS HOST [ARCHIVE]

CLICK [HERE]

1fichier.com/?9z06i652x73jbh6s3ptc
anonfile.com/UaB8tau1nf
bayfiles.com/l5C9tfu2n8
bitster.cz/file/e4032b
dl.free.fr/fdHVUQ8ZH
file.bz/g0C5tau3nd
www.filefactory.com/file/43ht9nk93qmv
filerio.in/iz68gw4wp6jr
filescdn.net/ahsw63j2wob8
multiup.org/download/1a6b0741fb4c901ff3ac1dbbefa59a90/2019.06.06_DG_King_of_Gate_2019_Day_16.mp4
openload.co/f/FdnCrRkAsdY/2019.06.06_DG_King_of_Gate_2019_Day_16.mp4
rg.to/file/6e21df063051bc40956c72e44851c2b7
turbobit.net/c8cvuf98pmq8.html
uploadgig.com/file/download/47721b9f9349a437

 55 total views,  1 views today

Dragon Gate King of Gate 2019 Day 16 Semi-Finals 720p

WH : Source OF Wrestling Releases / Home OF WH Releases

Buy Premium or Renew From WH Links to Keep it Alive

About PH.M.H

[Wrestling Best Uploader]

View all posts by PH.M.H →

Leave a Reply

Your email address will not be published. Required fields are marked *