Dragon Gate King Of Gate 2019 Day 16 720p / 6th JUNE 2019

Dragon Gate 2019 06 06 King Of Gate 2019 Day 16 720p WEB h264-H33B

Dragon Gate King Of Gate 2019 Day 16 720p / 6th JUNE 2019

Dragon Gate 2019 06 06 King Of Gate 2019 Day 16 720p WEB h264-H33B

TITLE:  Dragon.Gate.2019.06.06.King.Of.Gate.2019.Day.16.720p.WEB.h264-H33B


CARD:   
Six Man Tag Team Match
Dragon Dia, Drastik Boy, K-ness & Mondai Ryu vs. Hiroshi Yamato, Jimmy, Punch Tominaga & YASSHI

King of Gate 2019 Block A Representation Match
KAZMA SAKAMOTO vs. Kzy

Six Man Tag Team Match
Hyo Watanabe, Kaito Ishida & Kota Minoura vs. Strong Machine F, Strong Machine G & Strong Machine J

Tag Team Match
Masaaki Mochizuki & Yuki Yoshioka vs. Keisuke Okuda & Shun Skywalker

Eight Man Tag Team Match
Genki Horiguchi, Kenichiro Arai, Ryo Saito & Susumu Yokosuka vs. MaxiMuM (Dragon Kid, Jason Lee, Masato Yoshino & Naruki Doi)

Eight Man Tag Team Match
R.E.D. (Big R Shimizu, PAC, Takashi Yoshida & Yasushi Kanda) vs. Tribe Vanguard (Flamita, Kagetora, YAMATO & Yosuke Santa Maria)

King of Gate 2019 Semi Final Match
Eita vs. KAI

King of Gate 2019 Semi Final Match
Ben-K vs. TBD (Winner of Block A Representation Match)


DATE:  2019.06.06
LOCATION:  Tokyo, Japan
ARENA:  Korakuen Hall
RUNTIME:  3h 16m 44s
VIDEO:  h264 | 2001 kbps | 1280×720 px | 30 fps
AUDIO:  AAC | 128 kbps
LANGUAGE:  Japanese
CONTAINER:  MP4

General
Complete name : Dragon.Gate.2019.06.06.King.Of.Gate.2019.Day.16.720p.WEB.h264-H33B.mp4
Format : MPEG-4
Format profile : Base Media
Codec ID : isom (isom/iso2/avc1/mp41)
File size : 2.93 GiB
Duration : 3 h 16 min
Overall bit rate : 2 136 kb/s
Writing application : Lavf56.30.100

Video
ID : 1
Format : AVC
Format/Info : Advanced Video Codec
Format profile : [email protected]
Format settings : CABAC / 3 Ref Frames
Format settings, CABAC : Yes
Format settings, Reference : 3 frames
Format settings, GOP : M=1, N=30
Codec ID : avc1
Codec ID/Info : Advanced Video Coding
Duration : 3 h 16 min
Bit rate : 2 001 kb/s
Width : 1 280 pixels
Height : 720 pixels
Display aspect ratio : 16:9
Frame rate mode : Constant
Frame rate : 30.000 FPS
Color space : YUV
Chroma subsampling : 4:2:0
Bit depth : 8 bits
Scan type : Progressive
Bits/(Pixel*Frame) : 0.072
Stream size : 2.75 GiB (94%)
Writing library : Zencoder Video Encoding System
Codec configuration box : avcC

Audio
ID : 2
Format : AAC LC
Format/Info : Advanced Audio Codec Low Complexity
Codec ID : mp4a-40-2
Duration : 3 h 16 min
Bit rate mode : Constant
Bit rate : 128 kb/s
Channel(s) : 2 channels
Channel layout : L R
Sampling rate : 48.0 kHz
Frame rate : 46.875 FPS (1024 SPF)
Compression mode : Lossy
Stream size : 180 MiB (6%)
Default : Yes
Alternate group : 1

Dragon Gate King Of Gate 2019 Day 16 720p / 6th JUNE 2019
Dragon Gate King Of Gate 2019 Day 16 720p / 6th JUNE 2019
Dragon Gate King Of Gate 2019 Day 16 720p / 6th JUNE 2019
Dragon Gate King Of Gate 2019 Day 16 720p / 6th JUNE 2019

1fichier.com/?lregvopap2mw5zrj8ua3
anonfile.com/RdHeD7udn2
bayfiles.com/V2H3Ddu4n5
bitster.cz/file/7bbfda
dl.free.fr/fo3jNa7Y4
file.bz/h5IfD5u5ne
filerio.in/etxjdjkhuqzh
multiup.org/download/682a2528667c4b08beb49ae726bc46bd
nitroflare.com/view/A1A6351CE6FF90E
openload.co/f/EXUCdsA2rsc
turbobit.net/00mengpnenl8.html

 65 total views,  1 views today

Dragon Gate King Of Gate 2019 Day 16 720p / 6th JUNE 2019

WH : Source OF Wrestling Releases / Home OF WH Releases

Buy Premium or Renew From WH Links to Keep it Alive

About PH.M.H

[Wrestling Best Uploader]

View all posts by PH.M.H →

Leave a Reply

Your email address will not be published. Required fields are marked *