DDT 2020 06 27 DDT TV Show 8

DDT 2020 06 27 DDT TV Show 8 JAPANESE WEB h264-LATE

DDT 2020 06 27 DDT TV Show 8

DDT 2020 06 27 DDT TV Show 8 JAPANESE WEB h264-LATE

information

Complete name : DDT.2020.06.27.DDT TV.Show.8.JAPANESE.WEB.h264-LATE.mkv
Format : Matroska
Format version : Version 4
File size : 2.37 GiB
Duration : 3 h 0 min
Overall bit rate : 1 882 kb/s


detailed file info

General
Complete name : DDT.2020.06.27.DDT TV.Show.8.JAPANESE.WEB.h264-LATE.mkv
Format : Matroska
Format version : Version 4
File size : 2.37 GiB
Duration : 3 h 0 min
Overall bit rate : 1 882 kb/s

Video
Format : AVC
Codec ID : DDT 2020 06 27
Duration : 3 h 0 min
Bit rate : 1 784 kb/s
Width : 960 pixels
Height : 540 pixels
Display aspect ratio : 16:9
Frame rate mode : Constant
Frame rate : 30.000 FPS
Color space : YUV
Chroma subsampling : 4:2:0
Bit depth : 8 bits
Scan type : Progressive
Bits/(Pixel*Frame) : 0.115
Stream size : 2.24 GiB (95%)
Default : Yes
Forced : DDT 2020 06 27
Color range : Limited
Color primaries : BT.601 PAL
Transfer characteristics : BT.601
Matrix coefficients : DDT 2020 06 27

Audio
ID : DDT 2020 06 27
Format : AAC LC
Codec ID : A_AAC-2
Duration : 3 h 0 min
Bit rate : 96.0 kb/s
Channel(s) : 2 channels
Channel layout : L R
Sampling rate : 44.1 kHz
Frame rate : 43.066 FPS (1024 SPF)
Compression mode : Lossy
Delay relative to video : -166 ms
Stream size : 124 MiB (5%)
Language : English
Default : Yes
Forced : DDT 2020 06 27


Single download links

Rapidgator // Nitroflare // Uploadgig // RockFile

references

WH home page

 228 total views,  1 views today

DDT 2020 06 27 DDT TV Show 8

WH : Source OF Wrestling Releases / Home OF WH Releases

Buy Premium or Renew From WH Links to Keep it Alive

About PH.M.H

[Wrestling Best Uploader]

View all posts by PH.M.H →

Leave a Reply

Your email address will not be published. Required fields are marked *