DDT 2020 06 13 DDT TV Show 6 -LATE

DDT 2020 06 13 DDT TV Show 6 JAPANESE WEB h264-LATE

DDT 2020 06 13 DDT TV Show 6 -LATE

General
Complete name : DDT.2020.06.13.DDT TV.Show.6.JAPANESE.WEB.h264-LATE.mkv
Format : Matroska
Format version : Version 4
File size : 2.21 GiB
Duration : 2 h 45 min
Overall bit rate : 1 917 kb/s

Video
ID : 1
Format : AVC
Duration : 2 h 44 min
Bit rate : 1 818 kb/s
Width : 960 pixels
Height : 540 pixels
Display aspect ratio : 16:9
Frame rate mode : Constant
Frame rate : 30.000 FPS
Color space : YUV
Chroma subsampling : 4:2:0
Bit depth : 8 bits
Scan type : Progressive
Bits/(Pixel*Frame) : 0.117
Stream size : 2.10 GiB (95%)
Default : Yes
Forced : ddt 2020
Color range : Limited
Color primaries : BT.601 PAL
Transfer characteristics : DDT 2020
Matrix coefficients : 2020 06 13

Audio
ID : 2
Format : AAC LC
Codec ID : 2020 06 13
Duration : 2 h 44 min
Bit rate : 96.0 kb/s
Channel(s) : 2 channels
Channel layout : L R
Sampling rate : 44.1 kHz
Frame rate : 43.066 FPS (1024 SPF)
Compression mode : Lossy
Delay relative to video : -166 ms
Stream size : 113 MiB (5%)
Language : English
Default : 2020 06 13
Forced : DDT

Rapidgator // Nitroflare // Uploadgig // RockFile

wv

 254 total views,  1 views today

DDT 2020 06 13 DDT TV Show 6 -LATE

WH : Source OF Wrestling Releases / Home OF WH Releases

Buy Premium or Renew From WH Links to Keep it Alive

About PH.M.H

[Wrestling Best Uploader]

View all posts by PH.M.H →

Leave a Reply

Your email address will not be published. Required fields are marked *