DDT 2020 05 30 DDT TV Show 5

DDT 2020 05 30 DDT TV Show 5 JAPANESE WEB h264-LATE

DDT 2020 05 30 DDT TV Show 5

General

Complete name : DDT.2020.05.30.DDT TV.Show.5.JAPANESE.WEB.h264-LATE.mkv
Format : Matroska
Format version : Version 4
File size : 1.88 GiB
Duration : 2 h 23 min
Overall bit rate : 1 885 kb/s

Video
Format : AVC
Duration : 2 h 23 min
Bit rate : 1 786 kb/s
Width : 960 pixels
Height : 540 pixels
Display aspect ratio : 16:9
Frame rate mode : Constant
Frame rate : 30.000 FPS
Color space : YUV / 2020 05 30
Chroma subsampling : 4:2:0
Bit depth : 8 bits
Scan type : Progressive
Bits/(Pixel*Frame) : 0.115
Stream size : 1.79 GiB (95%)

Audio
ID : DDT
Format : AAC LC
Codec ID : A_AAC-2
Duration : 2 h 23 min
Bit rate : 96.0 kb/s
Channel(s) : 2 channels
Channel layout : L R
Sampling rate : 44.1 kHz
Compression mode : Lossy
Stream size : 98.3 MiB (5%)
Language : English
Default : Yes
Forced : DDT

Home PagePremium Site

 240 total views,  1 views today

DDT 2020 05 30 DDT TV Show 5

WH : Source OF Wrestling Releases / Home OF WH Releases

Buy Premium or Renew From WH Links to Keep it Alive

About PH.M.H

[Wrestling Best Uploader]

View all posts by PH.M.H →

One Comment on “DDT 2020 05 30 DDT TV Show 5”

Leave a Reply

Your email address will not be published. Required fields are marked *