DDT 2020 05 16 DDT TV Show 3 -LATE

DDT 2020 05 16 DDT TV Show 3 JAPANESE WEB h264-LATE

DDT 2020 05 16 DDT TV Show 3 -LATE

General
Complete name : DDT.2020.05.16.DDT TV.Show.3.JAPANESE.WEB.h264-LATE.mkv
Format : Matroska
Format version : Version 4
File size : 1.91 GiB
Duration : 2 h 24 min
Overall bit rate : 1 894 kb/s

Video
Format : AVC
Codec ID : V_MPEG4/ISO/AVC
Duration : 2 h 24 min
Bit rate : 1 795 kb/s
Width : 960 pixels
Height : 540 pixels
Display aspect ratio : 16:9
Frame rate mode : Constant
Frame rate : 30.000 FPS
Color space : YUV
Chroma subsampling : 4:2:0
Bit depth : 8 bits
Scan type : Progressive
Bits/(Pixel*Frame) : 0.115
Stream size : 1.81 GiB (95%)

Audio
Format : AAC LC
Codec ID : A_AAC-2
Duration : 2 h 24 min
Bit rate : 96.0 kb/s
Channel(s) : 2 channels
Channel layout : L R
Sampling rate : 44.1 kHz
Frame rate : 43.066 FPS (1024 SPF)
Compression mode : Lossy
Stream size : 98.9 MiB (5%)
Language : English
Default : Yes
Forced : No

 173 total views,  1 views today

DDT 2020 05 16 DDT TV Show 3 -LATE

Buy Premium or Extend From here to Support WH

About PH.M.H

[Wrestling Best Uploader]

View all posts by PH.M.H

One Comment on “DDT 2020 05 16 DDT TV Show 3 -LATE”

Leave a Reply

Your email address will not be published. Required fields are marked *