DDT 2020 05 09 DDT TV Show 2 -LATE

DDT 2020 05 09 DDT TV Show 2 JAPANESE WEB h264-LATE

DDT 2020 05 09 DDT TV Show 2 -LATE

General
Complete name : DDT.2020.05.09.DDT TV.Show.2.JAPANESE.WEB.h264-LATE.mkv
Format : Matroska
Format version : Version 4
File size : 1.82 GiB
Duration : 2 h 16 min
Overall bit rate : 1 908 kb/s

Video
Format : AVC
Codec ID : V_MPEG4/ISO/AVC
Duration : 2 h 16 min
Bit rate : 1 809 kb/s
Width : 960 pixels
Height : 540 pixels
Display aspect ratio : 16:9
Frame rate mode : Constant
Frame rate : 30.000 FPS
Color space : YUV
Chroma subsampling : 4:2:0
Bit depth : 8 bits
Scan type : Progressive
Bits/(Pixel*Frame) : 0.116
Stream size : 1.72 GiB (95%)
Default : Yes
Forced : No
Color range : Limited
Color primaries : BT.601 PAL
Transfer characteristics : BT.601
Matrix coefficients : BT.470 System B/G

Audio
Format : AAC LC
Codec ID : A_AAC-2
Duration : 2 h 16 min
Bit rate : 96.0 kb/s
Channel(s) : 2 channels
Channel layout : L R
Sampling rate : 44.1 kHz
Frame rate : 43.066 FPS (1024 SPF)
Compression mode : Lossy
Delay relative to video : -166 ms
Stream size : 93.6 MiB (5%)
Language : English
Default : Yes
Forced : No

wv

 77 total views,  2 views today

DDT 2020 05 09 DDT TV Show 2 -LATE

Buy Premium or Extend From here to Support WH

About PH.M.H

[Wrestling Best Uploader]

View all posts by PH.M.H

One Comment on “DDT 2020 05 09 DDT TV Show 2 -LATE”

Leave a Reply

Your email address will not be published. Required fields are marked *