DDT 2019 06 30 Road to Peter Pan 2019

DDT 2019 06 30 Road to Peter Pan 2019 JAPANESE WEB h264-LATE

Download DDT 2019 06 30 Road to Peter Pan 2019

DDT 2019 06 30 Road to Peter Pan 2019
DDT 2019 06 30 Road to Peter Pan 2019
Description=== Better LATE than never! ===

TITLE:  DDT.2019.06.30.Road.to.Peter.Pan.2019.JAPANESE.WEB.h264-LATE
DATE:    2019.06.30
RUNTIME: 3h 41m 2s
SIZE:    2.84 GB
VIDEO:  h264 | 1742 kbps | 960×540 px | 30.00 fps
AUDIO:  AAC | 96 kbps

===============================

General
Complete name : DDT.2019.06.30.Road.to.Peter.Pan.2019.JAPANESE.WEB.h264-LATE.mkv
Format : Matroska
Format version : Version 4
File size : 2.84 GiB
Duration : 3 h 41 min
Overall bit rate : 1 841 kb/s
Encoded date : UTC 2019-06-30 07:07:10
Writing application : mkvmerge v34.0.0 (‘Sight and Seen’) 64-bit
Writing library : libebml v1.3.7 + libmatroska v1.5.0

Video
ID : 1
Format : AVC
Format/Info : Advanced Video Codec
Format profile : [email protected]
Format settings : CABAC / 4 Ref Frames
Format settings, CABAC : Yes
Format settings, Reference : 4 frames
Codec ID : V_MPEG4/ISO/AVC
Duration : 3 h 41 min
Bit rate : 1 742 kb/s
Width : 960 pixels
Height : 540 pixels
Display aspect ratio : 16:9
Frame rate mode : Constant
Frame rate : 30.000 FPS
Color space : YUV
Chroma subsampling : 4:2:0
Bit depth : 8 bits
Scan type : Progressive
Bits/(Pixel*Frame) : 0.112
Stream size : 2.69 GiB (95%)
Default : Yes
Forced : No
Color range : Limited
Color primaries : BT.601 PAL
Transfer characteristics : BT.601
Matrix coefficients : BT.470 System B/G

Audio
ID : 2
Format : AAC LC
Format/Info : Advanced Audio Codec Low Complexity
Codec ID : A_AAC-2
Duration : 3 h 41 min
Bit rate : 96.0 kb/s
Channel(s) : 2 channels
Channel layout : L R
Sampling rate : 44.1 kHz
Frame rate : 43.066 FPS (1024 SPF)
Compression mode : Lossy
Delay relative to video : -166 ms
Stream size : 152 MiB (5%)
Language : English
Default : Yes
Forced : No

DDT 2019 06 30 Road to Peter Pan 2019
DDT 2019 06 30 Road to Peter Pan 2019
DDT 2019 06 30 Road to Peter Pan 2019

1fichier.com/?zf7m6fkdzxyisy5ojib2
anonfile.com/3br6ncx9n5
bayfiles.com/4br2n9x0n4
dl.free.fr/kEMscBgJp
file.bz/7er9n4xanb
www.filefactory.com/file/5ez3lo4w5qyn
megaupload.nz/Zer9n5x4nc
multiup.org/download/1d066ab85af14b79dee25c17d67f2b12
turbobit.net/8149k3g0i9qw.html
uptobox.com/ym9v3mz1mmo4

 111 total views,  1 views today

DDT 2019 06 30 Road to Peter Pan 2019

WH : Source OF Wrestling Releases / Home OF WH Releases

Buy Premium or Renew From WH Links to Keep it Alive

About PH.M.H

[Wrestling Best Uploader]

View all posts by PH.M.H →

Leave a Reply

Your email address will not be published. Required fields are marked *