DDT 2019 06 02 Wrestle Matsuyamania 2019

DDT 2019 06 02 Wrestle Matsuyamania 2019 JAPANESE WEB h264-LATE

DDT 2019 06 02 Wrestle Matsuyamania 2019

DDT 2019 06 02 Wrestle Matsuyamania 2019 JAPANESE WEB h264-LATE

=== Better LATE than never! ===

TITLE:  DDT.2019.06.02.Wrestle.Matsuyamania.2019.JAPANESE.WEB.h264-LATE
DATE:    2019.06.02
RUNTIME: 3h 17m 34s
SIZE:    2.52 GB
VIDEO:  h264 | 1732 kbps | 960×540 px | 29.97 fps
AUDIO:  AAC | 96 kbps

===============================

General
Complete name : DDT.2019.06.02.Wrestle.Matsuyamania.2019.JAPANESE.WEB.h264-LATE.mkv
Format : Matroska
Format version : Version 4
File size : 2.53 GiB
Duration : 3 h 17 min
Overall bit rate : 1 831 kb/s
Encoded date : UTC 2019-06-02 08:40:32
Writing application : mkvmerge v34.0.0 (‘Sight and Seen’) 64-bit
Writing library : libebml v1.3.7 + libmatroska v1.5.0

Video
ID : 1
Format : AVC
Format/Info : Advanced Video Codec
Format profile : [email protected]
Format settings : CABAC / 4 Ref Frames
Format settings, CABAC : Yes
Format settings, Reference : 4 frames
Codec ID : V_MPEG4/ISO/AVC
Duration : 3 h 17 min
Bit rate : 1 733 kb/s
Width : 960 pixels
Height : 540 pixels
Display aspect ratio : 16:9
Frame rate mode : Constant
Frame rate : 29.970 (30000/1001) FPS
Color space : YUV
Chroma subsampling : 4:2:0
Bit depth : 8 bits
Scan type : Progressive
Bits/(Pixel*Frame) : 0.112
Stream size : 2.39 GiB (95%)
Default : Yes
Forced : No
Color range : Limited
Color primaries : BT.601 PAL
Transfer characteristics : BT.601
Matrix coefficients : BT.470 System B/G

Audio
ID : 2
Format : AAC LC
Format/Info : Advanced Audio Codec Low Complexity
Codec ID : A_AAC-2
Duration : 3 h 17 min
Bit rate : 96.0 kb/s
Channel(s) : 2 channels
Channel layout : L R
Sampling rate : 44.1 kHz
Frame rate : 43.066 FPS (1024 SPF)
Compression mode : Lossy
Delay relative to video : -166 ms
Stream size : 136 MiB (5%)
Language : English
Default : Yes
Forced : No

DDT 2019 06 02 Wrestle Matsuyamania 2019
DDT 2019 06 02 Wrestle Matsuyamania 2019

1fichier.com/?mhi58guho6jv0b9nk228
anonfile.com/wfadM1t8n9
bayfiles.com/v6ceM8tcn2
bitster.cz/file/1591d4
dl.free.fr/kY82akaPs
file.bz/rcc4M8t5n4
filerio.in/f9fumekkso87
filescdn.net/09janz7d7cp8
multiup.org/download/2c9de94f452a1da2ce8bf8588dd19981
nitroflare.com/view/1F8500FCA1469BC
openload.co/f/2B9cvCEeAAw
rg.to/file/408ebae013dac66654a92d22191c811f
turbobit.net/j6czks1nnraj.html

 137 total views,  1 views today

DDT 2019 06 02 Wrestle Matsuyamania 2019

WH : Source OF Wrestling Releases / Home OF WH Releases

Buy Premium or Renew From WH Links to Keep it Alive

About PH.M.H

[Wrestling Best Uploader]

View all posts by PH.M.H →

Leave a Reply

Your email address will not be published. Required fields are marked *