CMLL 2019 06 21 Viernes Espectacular 720p

CMLL 2019 06 21 Viernes Espectacular 720p WEB x264-0M1077

Download CMLL 2019 06 21 Viernes Espectacular free Hosts

CMLL 2019 06 21 Viernes Espectacular 720p

CMLL 06/21/19 Viernes Espectacular 720p

[EVENT]: CMLL.2019.06.21.Viernes.Espectacular.720p.WEB.x264-0M1077 
[SIZE]: 2.27 GB 
[SOURCE]: YouTube 
[CONTAINER]: mp4 
[RESOLUTION]: 1280 x 720 (16:9) @ 29.970 FPS 
[VIDEO]: x264 @ 2177 kbps 
[AUDIO]: AAC @ 128 kbps 
[LENGTH]: 2 h 20 min

General
Complete name : CMLL.2019.06.21.Viernes.Espectacular.720p.WEB.x264-0M1077.mp4
Format : MPEG-4
Format profile : Base Media
Codec ID : isom (isom/iso2/avc1/mp41)
File size : 2.27 GiB
Duration : 2 h 20 min
Overall bit rate mode : Variable
Overall bit rate : 2 308 kb/s
Encoded date : UTC 2019-06-22 04:41:13
Tagged date : UTC 2019-06-22 04:41:13

Video
ID : 1
Format : AVC
Format/Info : Advanced Video Codec
Format profile : [email protected]
Format settings : CABAC / 3 Ref Frames
Format settings, CABAC : Yes
Format settings, Reference : 3 frames
Codec ID : avc1
Codec ID/Info : Advanced Video Coding
Duration : 2 h 20 min
Bit rate : 2 177 kb/s
Width : 1 280 pixels
Height : 720 pixels
Display aspect ratio : 16:9
Frame rate mode : Constant
Frame rate : 29.970 (30000/1001) FPS
Color space : YUV
Chroma subsampling : 4:2:0
Bit depth : 8 bits
Scan type : Progressive
Bits/(Pixel*Frame) : 0.079
Stream size : 2.14 GiB (94%)
Title : ISO Media file produced by Google Inc.
Encoded date : UTC 2019-06-22 04:41:13
Tagged date : UTC 2019-06-22 04:41:13
Color range : Limited
Color primaries : BT.709
Transfer characteristics : BT.709
Matrix coefficients : BT.709
Codec configuration box : avcC

Audio
ID : 2
Format : AAC LC
Format/Info : Advanced Audio Codec Low Complexity
Codec ID : mp4a-40-2
Duration : 2 h 20 min
Bit rate mode : Variable
Bit rate : 128 kb/s
Channel(s) : 2 channels
Channel layout : L R
Sampling rate : 44.1 kHz
Frame rate : 43.066 FPS (1024 SPF)
Compression mode : Lossy
Stream size : 129 MiB (6%)
Title : ISO Media file produced by Google Inc.
Default : Yes
Alternate group : 1
Encoded date : UTC 2019-06-22 04:41:10
Tagged date : UTC 2019-06-22 04:41:10

CMLL 2019 06 21 Viernes Espectacular 720p

dailyuploads

dailyuploads.net/bewrf5toew80

nitroflare
nitroflare.com/view/075DC025B9553C0

Rapidgator
rg.to/file/f70a5c287342f3f196af5a39ea87e166

1fichier.com/?1a27i8yj0rl66zlqf19k
bayfiles.com/F0r6k4wcn2
dl.free.fr/iBeviiUwH
file.bz/ves6k4w1n2
www.filefactory.com/file/3ko6e9da6diz
multiup.org/download/c43082bc06d28b4a2d23ba01035bc38b
turbobit.net/xr56j9ka5v1j.html
uptobox.com/ixw9m5yg4141

 45 total views,  1 views today

CMLL 2019 06 21 Viernes Espectacular 720p

WH : Source OF Wrestling Releases / Home OF WH Releases

Buy Premium or Renew From WH Links to Keep it Alive

About PH.M.H

[Wrestling Best Uploader]

View all posts by PH.M.H →

Leave a Reply

Your email address will not be published. Required fields are marked *