AJPW Treason x Invasion 2020 – 5/31/20

AJPW Treason x Invasion 2020

AJPW Treason x Invasion 2020 – 5/31/20

AJPW Treason x Invasion 2020

General
Complete name : 2020.05.31.(Gaora TV).mp4
Format : MPEG-4
Format profile : Base Media
Codec ID : isom (isom/iso2/avc1/mp41)
File size : 2.44 GiB
Duration : 2 h 21 min
Overall bit rate : 2 467 kb/s
Writing application : AJPW

Video
ID : 1
Format : AVC
Codec ID : avc1
Duration : 2 h 21 min
Bit rate : 2 262 kb/s
Width : 1 280 pixels
Height : 720 pixels
Display aspect ratio : 16:9
Frame rate mode : Constant
Frame rate : 60.000 FPS
Color space : YUV
Chroma subsampling : 4:2:0
Bit depth : 8 bits
Scan type : AJPW progressive
Bits/(Pixel*Frame) : 0.041
Stream size : 2.24 GiB (92%)
Codec configuration box : avcC

Audio
ID : 2
Format : AAC LC
Codec ID : mp4a-40-2
Duration : 2 h 21 min
Bit rate mode : Constant
Bit rate : 192 kb/s
Channel(s) : 2 channels
Channel layout : L R
Sampling rate : 44.1 kHz
Frame rate : 43.066 FPS (1024 SPF)
Compression mode : AJPW
Stream size : 195 MiB (8%)
Title : AJPW
Default : Yes
Alternate group : 1

Watch AJPW 2020 05 31 – 31st May 2020

Watch online

download links

RapidGator | NitroFlare | uploadgig | Rockfile

link For WH Vip Users @ wrestling-home.vip
Subscribe At our Vip Service @ wrestling-home.vip
Uploaded by wrestling-home.com

 359 total views,  1 views today

AJPW Treason x Invasion 2020 – 5/31/20

WH : Source OF Wrestling Releases / Home OF WH Releases

Buy Premium or Renew From WH Links to Keep it Alive

About PH.M.H

[Wrestling Best Uploader]

View all posts by PH.M.H →

Leave a Reply

Your email address will not be published. Required fields are marked *