AAA 2019 06 16 Verano De Escandalo ENGLISH 720p

AAA 2019 06 16 Verano De Escandalo ENGLISH 720p WEB x264-0M1077
AAA 2019 06 16 Verano De Escandalo ENGLISH 720p
AAA 2019 06 16 Verano De Escandalo ENGLISH 720p WEB x264-0M1077
[EVENT]: AAA.2019.06.16.Verano.De.Escandalo.ENGLISH.720p.WEB.x264-0M1077 
[SIZE]: 3.24 GB 
[SOURCE]: Twitch 
[CONTAINER]: mp4 
[RESOLUTION]: 1280 x 720 (16:9) @ 29.970 FPS 
[VIDEO]: x264 @ 2071 kbps 
[AUDIO]: AAC @ 128 kbps 
[LENGTH]: 3 h 30 min

General
Complete name : AAA.2019.06.16.Verano.De.Escandalo.ENGLISH.720p.WEB.x264-0M1077.mp4
Format : MPEG-4
Format profile : Base Media
Codec ID : isom (isom/iso2/avc1/mp41)
File size : 3.24 GiB
Duration : 3 h 30 min
Overall bit rate : 2 209 kb/s
Writing application : Lavf58.26.101

Video
ID : 1
Format : AVC
Format/Info : Advanced Video Codec
Format profile : [email protected]
Format settings : CABAC / 4 Ref Frames
Format settings, CABAC : Yes
Format settings, Reference : 4 frames
Codec ID : avc1
Codec ID/Info : Advanced Video Coding
Duration : 3 h 30 min
Bit rate : 2 071 kb/s
Width : 1 280 pixels
Height : 720 pixels
Display aspect ratio : 16:9
Frame rate mode : Variable
Frame rate : 29.970 FPS
Color space : YUV
Chroma subsampling : 4:2:0
Bit depth : 8 bits
Scan type : Progressive
Bits/(Pixel*Frame) : 0.075
Stream size : 3.04 GiB (94%)
Codec configuration box : avcC

Audio
ID : 2
Format : AAC LC
Format/Info : Advanced Audio Codec Low Complexity
Codec ID : mp4a-40-2
Duration : 3 h 30 min
Bit rate mode : Constant
Bit rate : 128 kb/s
Channel(s) : 2 channels
Channel layout : L R
Sampling rate : 48.0 kHz
Frame rate : 46.875 FPS (1024 SPF)
Compression mode : Lossy
Stream size : 193 MiB (6%)
Default : Yes
Alternate group : 1

AAA 2019 06 16 Verano De Escandalo ENGLISH 720p

1fichier.com/?ihs885259ysc21d4qy4h
anonfile.com/P4p594van7
bayfiles.com/b2s890v7n8
bitster.cz/file/0db707
dl.free.fr/h0HoUYWgR
file.bz/U9r89fvana
filerio.in/ebaev606709a
multiup.org/download/889336ee9475325b43dc76a5bfa1c320/AAA.2019.06.16.Verano.De.Escandalo.ENGLISH.720p.WEB.x264-0M1077.mp4
nitroflare.com/view/F5C18CAC546338C/AAA.2019.06.16.Verano.De.Escandalo.ENGLISH.720p.WEB.x264-0M1077.mp4
rg.to/file/98862d1c7def465e4c48d23ea3dc98ed
turbobit.net/54d6otx713e5.html
uploadgig.com/file/download/957Fa1deCd31A79a/AAA.2019.06.16.Verano.De.Escandalo.ENGLISH.720p.WEB.x264-0M1077.mp4

 103 total views,  1 views today

AAA 2019 06 16 Verano De Escandalo ENGLISH 720p

WH : Source OF Wrestling Releases / Home OF WH Releases

Buy Premium or Renew From WH Links to Keep it Alive

About PH.M.H

[Wrestling Best Uploader]

View all posts by PH.M.H →

Leave a Reply

Your email address will not be published. Required fields are marked *