AAA 2019 06 15 Conquista Total Gira ENGLISH 720p

AAA 2019 06 15 Conquista Total Gira ENGLISH 720p WEB x264-0M1077

AAA 2019 06 15 Conquista Total Gira ENGLISH 720p

AAA 2019 06 15 Conquista Total Gira ENGLISH 720p WEB x264-0M1077

[EVENT]: AAA.2019.06.15.Conquista.Total.Gira.ENGLISH.720p.WEB.x264-0M1077 
[SIZE]: 2.96 GB 
[SOURCE]: Twitch 
[CONTAINER]: mp4 
[RESOLUTION]: 1280 x 720 (16:9) @ 29.970 FPS 
[VIDEO]: x264 @ 2069 kbps 
[AUDIO]: AAC @ 128 kbps 
[LENGTH]: 3 h 11 min

General
Complete name : AAA.2019.06.15.Conquista.Total.Gira.ENGLISH.720p.WEB.x264-0M1077.mp4
Format : MPEG-4
Format profile : Base Media
Codec ID : isom (isom/iso2/avc1/mp41)
File size : 2.96 GiB
Duration : 3 h 11 min
Overall bit rate : 2 207 kb/s
Writing application : Lavf58.26.101

Video
ID : 1
Format : AVC
Format/Info : Advanced Video Codec
Format profile : [email protected]
Format settings : CABAC / 4 Ref Frames
Format settings, CABAC : Yes
Format settings, Reference : 4 frames
Codec ID : avc1
Codec ID/Info : Advanced Video Coding
Duration : 3 h 11 min
Bit rate : 2 069 kb/s
Width : 1 280 pixels
Height : 720 pixels
Display aspect ratio : 16:9
Frame rate mode : Variable
Frame rate : 29.970 FPS
Color space : YUV
Chroma subsampling : 4:2:0
Bit depth : 8 bits
Scan type : Progressive
Bits/(Pixel*Frame) : 0.075
Stream size : 2.77 GiB (94%)
Codec configuration box : avcC

Audio
ID : 2
Format : AAC LC
Format/Info : Advanced Audio Codec Low Complexity
Codec ID : mp4a-40-2
Duration : 3 h 11 min
Bit rate mode : Constant
Bit rate : 128 kb/s
Channel(s) : 2 channels
Channel layout : L R
Sampling rate : 44.1 kHz
Frame rate : 43.066 FPS (1024 SPF)
Compression mode : Lossy
Stream size : 176 MiB (6%)
Default : Yes
Alternate group : 1

AAA 2019 06 15 Conquista Total Gira ENGLISH 720p

1fichier.com/?jjndr9fkgvv5ckmzoz2o
anonfile.com/Pds5B1v3n7
bayfiles.com/K8t8B1v1n8
dl.free.fr/jznkyLN8U
file.bz/latdB9v1n9
filerio.in/tqhpc3r5b2vp
multiup.org/download/63458da2c2cbc1bacbdae4189db51438/AAA.2019.06.15.Conquista.Total.Gira.ENGLISH.720p.WEB.x264-0M1077.mp4
nitroflare.com/view/8B2C8CDE905FDED/AAA.2019.06.15.Conquista.Total.Gira.ENGLISH.720p.WEB.x264-0M1077.mp4
rg.to/file/de8c8472484f7c4f505f6725b2b9d2f1
turbobit.net/fxuf7infnadm.html
uploadgig.com/file/download/8c8A717ea000Fb43/AAA.2019.06.15.Conquista.Total.Gira.ENGLISH.720p.WEB.x264-0M1077.mp4

 96 total views,  1 views today

AAA 2019 06 15 Conquista Total Gira ENGLISH 720p

WH : Source OF Wrestling Releases / Home OF WH Releases

Buy Premium or Renew From WH Links to Keep it Alive

About PH.M.H

[Wrestling Best Uploader]

View all posts by PH.M.H →

Leave a Reply

Your email address will not be published. Required fields are marked *