AAA 2019 06 09 Conquista Total Gira 1080p

AAA 2019 06 09 Conquista Total Gira 1080p WEB x264-0M1077

AAA 2019 06 09 Conquista Total Gira 1080p

AAA 2019 06 09 Conquista Total Gira 1080p WEB x264-0M1077

Description[EVENT]: AAA.2019.06.09.Conquista.Total.Gira.1080p.WEB.x264-0M1077
[SIZE]: 4.49 GB
[SOURCE]: Twitch
[CONTAINER]: mp4
[RESOLUTION]: 1920 x 1080 (16:9) @ 29.970 FPS
[VIDEO]: x264 @ 3502 kbps
[AUDIO]: AAC @ 128 kbps
[LENGTH]: 2 h 56 min

General
Complete name : AAA.2019.06.09.Conquista.Total.Gira.1080p.WEB.x264-0M1077.mp4
Format : MPEG-4
Format profile : Base Media
Codec ID : isom (isom/iso2/avc1/mp41)
File size : 4.49 GiB
Duration : 2 h 56 min
Overall bit rate : 3 642 kb/s
Writing application : Lavf58.26.101

Video
ID : 1
Format : AVC
Format/Info : Advanced Video Codec
Format profile : [email protected]
Format settings : CABAC / 4 Ref Frames
Format settings, CABAC : Yes
Format settings, Reference : 4 frames
Format settings, GOP : M=4, N=59
Codec ID : avc1
Codec ID/Info : Advanced Video Coding
Duration : 2 h 56 min
Bit rate : 3 502 kb/s
Width : 1 920 pixels
Height : 1 080 pixels
Display aspect ratio : 16:9
Frame rate mode : Variable
Frame rate : 29.970 (30000/1001) FPS
Minimum frame rate : 29.412 FPS
Maximum frame rate : 30.303 FPS
Color space : YUV
Chroma subsampling : 4:2:0
Bit depth : 8 bits
Scan type : Progressive
Bits/(Pixel*Frame) : 0.056
Stream size : 4.32 GiB (96%)
Codec configuration box : avcC

Audio
ID : 2
Format : AAC LC
Format/Info : Advanced Audio Codec Low Complexity
Codec ID : mp4a-40-2
Duration : 2 h 56 min
Bit rate mode : Constant
Bit rate : 128 kb/s
Channel(s) : 2 channels
Channel layout : L R
Sampling rate : 48.0 kHz
Frame rate : 46.875 FPS (1024 SPF)
Compression mode : Lossy
Stream size : 162 MiB (4%)
Default : Yes
Alternate group : 1

AAA 2019 06 09 Conquista Total Gira 1080p

1fichier.com/?5d9vljxrjdvu3gd79mbx
multiup.org/download/f2b20319a8532656fecf6c40e46a6eda
dl.free.fr/kuZjVVBOF
filerio.in/7b5lx22ce275
turbobit.net/8uyjwqbn7qsy.html
nitroflare.com/view/EF6DA1A513C852C
anonfile.com/u6O3G5u7n6
rg.to/file/2d52a4a259fc7e814eef52cc1cab7540
bitster.cz/file/3aa7cf

 54 total views,  1 views today

AAA 2019 06 09 Conquista Total Gira 1080p

WH : Source OF Wrestling Releases / Home OF WH Releases

Buy Premium or Renew From WH Links to Keep it Alive

About PH.M.H

[Wrestling Best Uploader]

View all posts by PH.M.H →

Leave a Reply

Your email address will not be published. Required fields are marked *