PROGRESS Wrestling 2019 10 27 Chapter 97 720p / 1080p -HEEL

PROGRESS Wrestling 2019 10 27 Chapter 97 720p / 1080p -HEEL

dOWNLOAD PROGRESS Wrestling 2019 10 27 Chapter 97 720p / 1080p -HEEL

DescriptionChapter 97: Sex Robots Will Eventually Be Capable Of Murder

Show date: 27th October 2019

Venue: Electric Ballroom, Camden

Connor Mills vs Mark Andrews w/ Eddie Dennis

Pretty Deadly vs Jordon Breaks and Sid Scala

Cara Noir vs Ilja Dragunov

Do Not Resuscitate vs The NIC

Meiko Satomura (c) vs Dani Luna – Women’s Title Match

Paul Robinson (c) vs William Eaver – Proteus Title Match

Main Event (no spoilers!)

General
Complete name : PROGRESS.Wrestling.2019.10.27.Chapter.97.720p.WEB.h264-iNDYHEEL.mp4
Format : MPEG-4
Format profile : Base Media
Codec ID : isom (isom/iso2/avc1/mp41)
File size : 2.59 GiB
Duration : 2 h 46 min
Overall bit rate : 2 223 kb/s
Writing application : Lavf58.32.104

Video
ID : 1
Format : AVC
Format/Info : Advanced Video Codec
Format profile : [email protected]
Format settings : CABAC / 3 Ref Frames
Format settings, CABAC : Yes
Format settings, Reference : 3 frames
Codec ID : avc1
Codec ID/Info : Advanced Video Coding
Duration : 2 h 46 min
Duration_FirstFrame : -40 ms
Bit rate : 2 089 kb/s
Width : 1 280 pixels
Height : 720 pixels
Display aspect ratio : 16:9
Frame rate mode : Variable
Frame rate : 25.000 FPS
Minimum frame rate : 25.000 FPS
Maximum frame rate : 25.007 FPS
Color space : YUV
Chroma subsampling : 4:2:0
Bit depth : 8 bits
Scan type : Progressive
Bits/(Pixel*Frame) : 0.091
Stream size : 2.43 GiB (94%)
Codec configuration box : avcC

Audio
ID : 2
Format : AAC LC
Format/Info : Advanced Audio Codec Low Complexity
Codec ID : mp4a-40-2
Duration : 2 h 46 min
Bit rate mode : Constant
Bit rate : 128 kb/s
Channel(s) : 2 channels
Channel layout : L R
Sampling rate : 48.0 kHz
Frame rate : 46.875 FPS (1024 SPF)
Compression mode : Lossy
Stream size : 153 MiB (6%)
Default : Yes
Alternate group : 1

https://dropapk.to/o3bdhrsonrl4
https://fileup.cc/j0amjjasjpoy
http://nitroflare.com/view/B5143CD14CF3BF0
https://rapidgator.net/file/c34556d3c949859bc3d8603c4ea8dae6

General
Complete name : PROGRESS.Wrestling.2019.10.27.Chapter.97.1080p.WEB.h264-iNDYHEEL.mp4
Format : MPEG-4
Format profile : Base Media
Codec ID : isom (isom/iso2/avc1/mp41)
File size : 4.89 GiB
Duration : 2 h 46 min
Overall bit rate : 4 195 kb/s
Writing application : Lavf58.32.104

Video
ID : 1
Format : AVC
Format/Info : Advanced Video Codec
Format profile : [email protected]
Format settings : CABAC / 3 Ref Frames
Format settings, CABAC : Yes
Format settings, Reference : 3 frames
Codec ID : avc1
Codec ID/Info : Advanced Video Coding
Duration : 2 h 46 min
Bit rate : 3 996 kb/s
Width : 1 920 pixels
Height : 1 080 pixels
Display aspect ratio : 16:9
Frame rate mode : Variable
Frame rate : 25.000 FPS
Minimum frame rate : 12.916 FPS
Maximum frame rate : 90 000.000 FPS
Color space : YUV
Chroma subsampling : 4:2:0
Bit depth : 8 bits
Scan type : Progressive
Bits/(Pixel*Frame) : 0.077
Stream size : 4.65 GiB (95%)
Codec configuration box : avcC

Audio
ID : 2
Format : AAC LC
Format/Info : Advanced Audio Codec Low Complexity
Codec ID : mp4a-40-2
Duration : 2 h 46 min
Bit rate mode : Constant
Bit rate : 192 kb/s
Channel(s) : 2 channels
Channel layout : L R
Sampling rate : 48.0 kHz
Frame rate : 46.875 FPS (1024 SPF)
Compression mode : Lossy
Stream size : 229 MiB (5%)
Default : Yes
Alternate group : 1

https://dropapk.to/a4x8x588la22
https://fileup.cc/ti2xx95l5j12
http://nitroflare.com/view/DB58F6D917198E4
https://rapidgator.net/file/44892e846653b0e78b37cbfc347319bd

Leave a Reply

Your email address will not be published. Required fields are marked *